  0
SECTION
  2
HEADER
  9
$ACADVER
  1
AC1015
  9
$ACADMAINTVER
 70
     6
  9
$DWGCODEPAGE
  3
ANSI_1252
  9
$INSBASE
 10
0.0
 20
0.0
 30
0.0
  9
$EXTMIN
 10
0.0
 20
0.0
 30
0.0
  9
$EXTMAX
 10
296.9999999999999
 20
210.0
 30
0.0
  9
$LIMMIN
 10
0.0
 20
0.0
  9
$LIMMAX
 10
12.0
 20
9.0
  9
$ORTHOMODE
 70
     0
  9
$REGENMODE
 70
     1
  9
$FILLMODE
 70
     1
  9
$QTEXTMODE
 70
     0
  9
$MIRRTEXT
 70
     1
  9
$LTSCALE
 40
1.0
  9
$ATTMODE
 70
     1
  9
$TEXTSIZE
 40
0.2
  9
$TRACEWID
 40
0.05
  9
$TEXTSTYLE
  7
Standard
  9
$CLAYER
  8
0
  9
$CELTYPE
  6
ByLayer
  9
$CECOLOR
 62
   256
  9
$CELTSCALE
 40
1.0
  9
$DISPSILH
 70
     0
  9
$DIMSCALE
 40
1.0
  9
$DIMASZ
 40
0.18
  9
$DIMEXO
 40
0.0625
  9
$DIMDLI
 40
0.38
  9
$DIMRND
 40
0.0
  9
$DIMDLE
 40
0.0
  9
$DIMEXE
 40
0.18
  9
$DIMTP
 40
0.0
  9
$DIMTM
 40
0.0
  9
$DIMTXT
 40
0.18
  9
$DIMCEN
 40
0.09
  9
$DIMTSZ
 40
0.0
  9
$DIMTOL
 70
     0
  9
$DIMLIM
 70
     0
  9
$DIMTIH
 70
     1
  9
$DIMTOH
 70
     1
  9
$DIMSE1
 70
     0
  9
$DIMSE2
 70
     0
  9
$DIMTAD
 70
     0
  9
$DIMZIN
 70
     0
  9
$DIMBLK
  1

  9
$DIMASO
 70
     1
  9
$DIMSHO
 70
     1
  9
$DIMPOST
  1

  9
$DIMAPOST
  1

  9
$DIMALT
 70
     0
  9
$DIMALTD
 70
     2
  9
$DIMALTF
 40
25.4
  9
$DIMLFAC
 40
1.0
  9
$DIMTOFL
 70
     0
  9
$DIMTVP
 40
0.0
  9
$DIMTIX
 70
     0
  9
$DIMSOXD
 70
     0
  9
$DIMSAH
 70
     0
  9
$DIMBLK1
  1

  9
$DIMBLK2
  1

  9
$DIMSTYLE
  2
Standard
  9
$DIMCLRD
 70
     0
  9
$DIMCLRE
 70
     0
  9
$DIMCLRT
 70
     0
  9
$DIMTFAC
 40
1.0
  9
$DIMGAP
 40
0.09
  9
$DIMJUST
 70
     0
  9
$DIMSD1
 70
     0
  9
$DIMSD2
 70
     0
  9
$DIMTOLJ
 70
     1
  9
$DIMTZIN
 70
     0
  9
$DIMALTZ
 70
     0
  9
$DIMALTTZ
 70
     0
  9
$DIMUPT
 70
     0
  9
$DIMDEC
 70
     4
  9
$DIMTDEC
 70
     4
  9
$DIMALTU
 70
     2
  9
$DIMALTTD
 70
     2
  9
$DIMTXSTY
  7
Standard
  9
$DIMAUNIT
 70
     0
  9
$DIMADEC
 70
     0
  9
$DIMALTRND
 40
0.0
  9
$DIMAZIN
 70
     0
  9
$DIMDSEP
 70
    46
  9
$DIMATFIT
 70
     3
  9
$DIMFRAC
 70
     0
  9
$DIMLDRBLK
  1

  9
$DIMLUNIT
 70
     2
  9
$DIMLWD
 70
    -2
  9
$DIMLWE
 70
    -2
  9
$DIMTMOVE
 70
     0
  9
$LUNITS
 70
     2
  9
$LUPREC
 70
     4
  9
$SKETCHINC
 40
0.1
  9
$FILLETRAD
 40
0.5
  9
$AUNITS
 70
     0
  9
$AUPREC
 70
     0
  9
$MENU
  1
.
  9
$ELEVATION
 40
0.0
  9
$PELEVATION
 40
0.0
  9
$THICKNESS
 40
0.0
  9
$LIMCHECK
 70
     0
  9
$CHAMFERA
 40
0.5
  9
$CHAMFERB
 40
0.5
  9
$CHAMFERC
 40
1.0
  9
$CHAMFERD
 40
0.0
  9
$SKPOLY
 70
     0
  9
$TDCREATE
 40
2456997.61662412
  9
$TDUCREATE
 40
2456997.574957454
  9
$TDUPDATE
 40
2456997.616624479
  9
$TDUUPDATE
 40
2456997.574957813
  9
$TDINDWG
 40
0.0000000116
  9
$TDUSRTIMER
 40
0.0000000116
  9
$USRTIMER
 70
     1
  9
$ANGBASE
 50
0.0
  9
$ANGDIR
 70
     0
  9
$PDMODE
 70
     0
  9
$PDSIZE
 40
0.0
  9
$PLINEWID
 40
0.0
  9
$SPLFRAME
 70
     0
  9
$SPLINETYPE
 70
     6
  9
$SPLINESEGS
 70
     8
  9
$HANDSEED
  5
7EA
  9
$SURFTAB1
 70
     6
  9
$SURFTAB2
 70
     6
  9
$SURFTYPE
 70
     6
  9
$SURFU
 70
     6
  9
$SURFV
 70
     6
  9
$UCSBASE
  2

  9
$UCSNAME
  2

  9
$UCSORG
 10
0.0
 20
0.0
 30
0.0
  9
$UCSXDIR
 10
1.0
 20
0.0
 30
0.0
  9
$UCSYDIR
 10
0.0
 20
1.0
 30
0.0
  9
$UCSORTHOREF
  2

  9
$UCSORTHOVIEW
 70
     0
  9
$UCSORGTOP
 10
0.0
 20
0.0
 30
0.0
  9
$UCSORGBOTTOM
 10
0.0
 20
0.0
 30
0.0
  9
$UCSORGLEFT
 10
0.0
 20
0.0
 30
0.0
  9
$UCSORGRIGHT
 10
0.0
 20
0.0
 30
0.0
  9
$UCSORGFRONT
 10
0.0
 20
0.0
 30
0.0
  9
$UCSORGBACK
 10
0.0
 20
0.0
 30
0.0
  9
$PUCSBASE
  2

  9
$PUCSNAME
  2

  9
$PUCSORG
 10
0.0
 20
0.0
 30
0.0
  9
$PUCSXDIR
 10
1.0
 20
0.0
 30
0.0
  9
$PUCSYDIR
 10
0.0
 20
1.0
 30
0.0
  9
$PUCSORTHOREF
  2

  9
$PUCSORTHOVIEW
 70
     0
  9
$PUCSORGTOP
 10
0.0
 20
0.0
 30
0.0
  9
$PUCSORGBOTTOM
 10
0.0
 20
0.0
 30
0.0
  9
$PUCSORGLEFT
 10
0.0
 20
0.0
 30
0.0
  9
$PUCSORGRIGHT
 10
0.0
 20
0.0
 30
0.0
  9
$PUCSORGFRONT
 10
0.0
 20
0.0
 30
0.0
  9
$PUCSORGBACK
 10
0.0
 20
0.0
 30
0.0
  9
$USERI1
 70
     0
  9
$USERI2
 70
     0
  9
$USERI3
 70
     0
  9
$USERI4
 70
     0
  9
$USERI5
 70
     0
  9
$USERR1
 40
18.1
  9
$USERR2
 40
0.0
  9
$USERR3
 40
0.0
  9
$USERR4
 40
0.0
  9
$USERR5
 40
0.0
  9
$WORLDVIEW
 70
     1
  9
$SHADEDGE
 70
     3
  9
$SHADEDIF
 70
    70
  9
$TILEMODE
 70
     1
  9
$MAXACTVP
 70
    64
  9
$PINSBASE
 10
0.0
 20
0.0
 30
0.0
  9
$PLIMCHECK
 70
     0
  9
$PEXTMIN
 10
1.00000000000000E+20
 20
1.00000000000000E+20
 30
1.00000000000000E+20
  9
$PEXTMAX
 10
-1.00000000000000E+20
 20
-1.00000000000000E+20
 30
-1.00000000000000E+20
  9
$PLIMMIN
 10
0.0
 20
0.0
  9
$PLIMMAX
 10
12.0
 20
9.0
  9
$UNITMODE
 70
     0
  9
$VISRETAIN
 70
     1
  9
$PLINEGEN
 70
     0
  9
$PSLTSCALE
 70
     1
  9
$TREEDEPTH
 70
  3020
  9
$CMLSTYLE
  2
Standard
  9
$CMLJUST
 70
     0
  9
$CMLSCALE
 40
1.0
  9
$PROXYGRAPHICS
 70
     1
  9
$MEASUREMENT
 70
     1
  9
$CELWEIGHT
370
    -1
  9
$ENDCAPS
280
     0
  9
$JOINSTYLE
280
     0
  9
$LWDISPLAY
290
     0
  9
$INSUNITS
 70
     4
  9
$HYPERLINKBASE
  1

  9
$STYLESHEET
  1

  9
$XEDIT
290
     1
  9
$CEPSNTYPE
380
     0
  9
$PSTYLEMODE
290
     1
  9
$FINGERPRINTGUID
  2
{90B56C57-037D-41D3-9B13-D388C3510D85}
  9
$VERSIONGUID
  2
{FAEB1C32-E019-11D5-929B-00C0DF256EC4}
  9
$EXTNAMES
290
     1
  9
$PSVPSCALE
 40
0.0
  9
$OLESTARTUP
290
     0
  0
ENDSEC
  0
SECTION
  2
CLASSES
  0
CLASS
  1
ACDBDICTIONARYWDFLT
  2
AcDbDictionaryWithDefault
  3
ObjectDBX Classes
 90
        0
280
     0
281
     0
  0
CLASS
  1
VISUALSTYLE
  2
AcDbVisualStyle
  3
ObjectDBX Classes
 90
     4095
280
     0
281
     0
  0
CLASS
  1
MATERIAL
  2
AcDbMaterial
  3
ObjectDBX Classes
 90
     1153
280
     0
281
     0
  0
CLASS
  1
DICTIONARYVAR
  2
AcDbDictionaryVar
  3
ObjectDBX Classes
 90
        0
280
     0
281
     0
  0
CLASS
  1
ACDBPLACEHOLDER
  2
AcDbPlaceHolder
  3
ObjectDBX Classes
 90
        0
280
     0
281
     0
  0
CLASS
  1
LAYOUT
  2
AcDbLayout
  3
ObjectDBX Classes
 90
        0
280
     0
281
     0
  0
ENDSEC
  0
SECTION
  2
TABLES
  0
TABLE
  2
VPORT
  5
8
330
0
100
AcDbSymbolTable
 70
     1
  0
VPORT
  5
29
330
8
100
AcDbSymbolTableRecord
100
AcDbViewportTableRecord
  2
*Active
 70
     0
 10
0.0
 20
0.0
 11
1.0
 21
1.0
 12
148.4999999999999
 22
105.0
 13
0.0
 23
0.0
 14
0.5
 24
0.5
 15
0.5
 25
0.5
 16
0.0
 26
0.0
 36
1.0
 17
0.0
 27
0.0
 37
0.0
 40
231.0
 41
1.60267857142857
 42
50.0
 43
0.0
 44
0.0
 50
0.0
 51
0.0
 71
     0
 72
   100
 73
     1
 74
     3
 75
     0
 76
     0
 77
     0
 78
     0
281
     0
 65
     1
110
0.0
120
0.0
130
0.0
111
1.0
121
0.0
131
0.0
112
0.0
122
1.0
132
0.0
 79
     0
146
0.0
  0
ENDTAB
  0
TABLE
  2
LTYPE
  5
5
330
0
100
AcDbSymbolTable
 70
     9
  0
LTYPE
  5
14
330
5
100
AcDbSymbolTableRecord
100
AcDbLinetypeTableRecord
  2
ByBlock
 70
     0
  3

 72
    65
 73
     0
 40
0.0
  0
LTYPE
  5
15
330
5
100
AcDbSymbolTableRecord
100
AcDbLinetypeTableRecord
  2
ByLayer
 70
     0
  3

 72
    65
 73
     0
 40
0.0
  0
LTYPE
  5
16
330
5
100
AcDbSymbolTableRecord
100
AcDbLinetypeTableRecord
  2
Continuous
 70
     0
  3
Solid line
 72
    65
 73
     0
 40
0.0
  0
LTYPE
  5
3F
330
5
100
AcDbSymbolTableRecord
100
AcDbLinetypeTableRecord
  2
DASHED
 70
     0
  3
Dashed
 72
    65
 73
     2
 40
15.0
 49
7.0
 74
     0
 49
-8.0
 74
     0
  0
LTYPE
  5
40
330
5
100
AcDbSymbolTableRecord
100
AcDbLinetypeTableRecord
  2
DOTTED
 70
     0
  3
Dotted
 72
    65
 73
     2
 40
1.0
 49
0.0
 74
     0
 49
-1.0
 74
     0
  0
LTYPE
  5
41
330
5
100
AcDbSymbolTableRecord
100
AcDbLinetypeTableRecord
  2
DOT_CENTER
 70
     0
  3
Dot_Center
 72
    65
 73
     4
 40
14.0
 49
12.0
 74
     0
 49
-1.0
 74
     0
 49
0.0
 74
     0
 49
-1.0
 74
     0
  0
LTYPE
  5
42
330
5
100
AcDbSymbolTableRecord
100
AcDbLinetypeTableRecord
  2
LONG_DASHED
 70
     0
  3
Long_Dashed
 72
    65
 73
     2
 40
15.0
 49
10.0
 74
     0
 49
-5.0
 74
     0
  0
LTYPE
  5
43
330
5
100
AcDbSymbolTableRecord
100
AcDbLinetypeTableRecord
  2
DASH_CENTER
 70
     0
  3
Dash_Center
 72
    65
 73
     4
 40
14.0
 49
11.0
 74
     0
 49
-1.0
 74
     0
 49
1.0
 74
     0
 49
-1.0
 74
     0
  0
LTYPE
  5
44
330
5
100
AcDbSymbolTableRecord
100
AcDbLinetypeTableRecord
  2
PHANTOM
 70
     0
  3
Phantom
 72
    65
 73
     6
 40
13.0
 49
10.0
 74
     0
 49
-1.0
 74
     0
 49
0.0
 74
     0
 49
-1.0
 74
     0
 49
0.0
 74
     0
 49
-1.0
 74
     0
  0
LTYPE
  5
45
330
5
100
AcDbSymbolTableRecord
100
AcDbLinetypeTableRecord
  2
CENTER_DASH_DASH
 70
     0
  3
Center_Dash_Dash
 72
    65
 73
     6
 40
14.0
 49
9.0
 74
     0
 49
-1.0
 74
     0
 49
1.0
 74
     0
 49
-1.0
 74
     0
 49
1.0
 74
     0
 49
-1.0
 74
     0
  0
LTYPE
  5
46
330
5
100
AcDbSymbolTableRecord
100
AcDbLinetypeTableRecord
  2
CHAIN
 70
     0
  3
CHAIN
 72
    65
 73
     4
 40
4.0
 49
1.0
 74
     0
 49
-1.0
 74
     0
 49
1.0
 74
     0
 49
-1.0
 74
     0
  0
ENDTAB
  0
TABLE
  2
LAYER
  5
2
330
0
100
AcDbSymbolTable
 70
     8
  0
LAYER
  5
10
330
2
100
AcDbSymbolTableRecord
100
AcDbLayerTableRecord
  2
0
 70
     0
 62
     7
  6
Continuous
370
    -3
390
F
  0
LAYER
  5
47
330
2
100
AcDbSymbolTableRecord
100
AcDbLayerTableRecord
  2
1
 70
     0
 62
     7
  6
Continuous
370
    -3
390
F
  0
LAYER
  5
48
330
2
100
AcDbSymbolTableRecord
100
AcDbLayerTableRecord
  2
Bemaßungen_TC_020513_DIN_
 70
     0
 62
     7
  6
Continuous
370
    -3
390
F
  0
LAYER
  5
49
330
2
100
AcDbSymbolTableRecord
100
AcDbLayerTableRecord
  2
Gewinde_TC_020513_DIN_
 70
     0
 62
     7
  6
Continuous
370
    -3
390
F
  0
LAYER
  5
4A
330
2
100
AcDbSymbolTableRecord
100
AcDbLayerTableRecord
  2
Mittellinie_TC_020513_DIN_
 70
     0
 62
     7
  6
Continuous
370
    -3
390
F
  0
LAYER
  5
4B
330
2
100
AcDbSymbolTableRecord
100
AcDbLayerTableRecord
  2
Mittelpunktmarkierung_TC_020513_DIN_
 70
     0
 62
     7
  6
Continuous
370
    -3
390
F
  0
LAYER
  5
4C
330
2
100
AcDbSymbolTableRecord
100
AcDbLayerTableRecord
  2
Sichtbare_Kanten_TC_020513_DIN_
 70
     0
 62
     7
  6
Continuous
370
    -3
390
F
  0
LAYER
  5
4D
330
2
100
AcDbSymbolTableRecord
100
AcDbLayerTableRecord
  2
Skizziergeometrie_TC_020513_DIN_
 70
     0
 62
     7
  6
Continuous
370
    -3
390
F
  0
ENDTAB
  0
TABLE
  2
STYLE
  5
3
330
0
100
AcDbSymbolTable
 70
     4
  0
STYLE
  5
11
330
3
100
AcDbSymbolTableRecord
100
AcDbTextStyleTableRecord
  2
Standard
 70
     0
 40
0.0
 41
1.0
 50
0.0
 71
     0
 42
0.2
  3
txt
  4

  0
STYLE
  5
96
330
3
100
AcDbSymbolTableRecord
100
AcDbTextStyleTableRecord
  2
CONVERTER_11
 70
     0
 40
0.0
 41
0.9
 50
0.0
 71
     0
 42
0.2
  3
txt.shx
  4

  0
STYLE
  5
99
330
3
100
AcDbSymbolTableRecord
100
AcDbTextStyleTableRecord
  2
CONVERTER_12
 70
     0
 40
0.0
 41
1.035
 50
0.0
 71
     0
 42
0.2
  3
txt.shx
  4

  0
STYLE
  5
749
330
3
100
AcDbSymbolTableRecord
100
AcDbTextStyleTableRecord
  2
CONVERTER_13
 70
     0
 40
0.0
 41
0.95
 50
0.0
 71
     0
 42
0.2
  3
simplex.shx
  4

  0
ENDTAB
  0
TABLE
  2
VIEW
  5
6
330
0
100
AcDbSymbolTable
 70
     0
  0
ENDTAB
  0
TABLE
  2
UCS
  5
7
330
0
100
AcDbSymbolTable
 70
     0
  0
ENDTAB
  0
TABLE
  2
APPID
  5
9
330
0
100
AcDbSymbolTable
 70
     1
  0
APPID
  5
12
330
9
100
AcDbSymbolTableRecord
100
AcDbRegAppTableRecord
  2
ACAD
 70
     0
  0
ENDTAB
  0
TABLE
  2
DIMSTYLE
  5
A
330
0
100
AcDbSymbolTable
 70
    11
100
AcDbDimStyleTable
  0
DIMSTYLE
105
27
330
A
100
AcDbSymbolTableRecord
100
AcDbDimStyleTableRecord
  2
Standard
 70
     0
178
     0
340
11
  0
DIMSTYLE
105
758
102
{ACAD_REACTORS
330
759
102
}
330
A
100
AcDbSymbolTableRecord
100
AcDbDimStyleTableRecord
  2
ME10_DIM_10
 70
     0
 41
3.0
 42
0.5
 44
1.0
 73
     0
 74
     0
 77
     1
 78
     8
140
3.0
147
2.0
172
     1
173
     1
174
     1
175
     1
176
     2
177
     2
271
     2
178
     4
271
     2
340
749
  0
DIMSTYLE
105
763
102
{ACAD_REACTORS
330
764
102
}
330
A
100
AcDbSymbolTableRecord
100
AcDbDimStyleTableRecord
  2
ME10_DIM_11
 70
     0
 41
3.0
 42
0.5
 44
1.0
 73
     0
 74
     0
 77
     1
 78
     8
140
3.0
147
2.0
172
     1
173
     1
174
     1
175
     1
176
     2
177
     2
271
     2
178
     4
271
     2
340
749
  0
DIMSTYLE
105
770
102
{ACAD_REACTORS
330
771
102
}
330
A
100
AcDbSymbolTableRecord
100
AcDbDimStyleTableRecord
  2
ME10_DIM_12
 70
     0
 41
3.0
 42
0.5
 44
1.0
 73
     0
 74
     0
 77
     1
 78
     8
140
3.0
147
2.0
172
     1
173
     1
174
     1
175
     1
176
     2
177
     2
271
     2
178
     4
271
     2
340
749
  0
DIMSTYLE
105
77B
102
{ACAD_REACTORS
330
77C
102
}
330
A
100
AcDbSymbolTableRecord
100
AcDbDimStyleTableRecord
  2
ME10_DIM_13
 70
     0
 41
3.0
 42
0.5
 44
1.0
 73
     0
 74
     0
 77
     1
 78
     8
140
3.0
147
2.0
172
     1
173
     1
174
     1
175
     1
176
     2
177
     2
271
     2
178
     4
271
     2
340
749
  0
DIMSTYLE
105
786
102
{ACAD_REACTORS
330
787
102
}
330
A
100
AcDbSymbolTableRecord
100
AcDbDimStyleTableRecord
  2
ME10_DIM_14
 70
     0
 41
3.0
 42
0.5
 44
1.0
 73
     0
 74
     0
 77
     1
 78
     8
140
3.0
147
2.0
172
     1
173
     1
174
     1
175
     1
176
     2
177
     2
271
     2
178
     4
271
     2
340
749
  0
DIMSTYLE
105
791
102
{ACAD_REACTORS
330
792
102
}
330
A
100
AcDbSymbolTableRecord
100
AcDbDimStyleTableRecord
  2
ME10_DIM_15
 70
     0
 41
3.0
 42
0.5
 44
1.0
 73
     0
 74
     0
 77
     1
 78
     8
140
3.0
147
2.0
172
     1
173
     1
174
     1
175
     1
176
     2
177
     2
271
     2
178
     4
271
     2
340
749
  0
DIMSTYLE
105
79C
102
{ACAD_REACTORS
330
79D
102
}
330
A
100
AcDbSymbolTableRecord
100
AcDbDimStyleTableRecord
  2
ME10_DIM_16
 70
     0
 41
3.0
 42
0.5
 44
1.0
 73
     0
 74
     0
 77
     1
 78
     8
140
3.0
147
2.0
172
     1
173
     1
174
     1
175
     1
176
     2
177
     2
271
     2
178
     4
271
     2
340
749
  0
DIMSTYLE
105
7A7
102
{ACAD_REACTORS
330
7A8
102
}
330
A
100
AcDbSymbolTableRecord
100
AcDbDimStyleTableRecord
  2
ME10_DIM_17
 70
     0
 41
3.0
 42
0.5
 44
1.0
 73
     0
 74
     0
 77
     1
 78
     8
140
3.0
147
2.0
172
     1
173
     1
174
     1
175
     1
176
     2
177
     2
271
     2
178
     4
271
     2
340
749
  0
DIMSTYLE
105
7B2
102
{ACAD_REACTORS
330
7B3
102
}
330
A
100
AcDbSymbolTableRecord
100
AcDbDimStyleTableRecord
  2
ME10_DIM_18
 70
     0
 41
3.0
 42
0.5
 44
1.0
 73
     0
 74
     0
 77
     1
 78
     8
140
3.0
147
2.0
172
     1
173
     1
174
     1
175
     1
176
     2
177
     2
271
     2
178
     4
271
     2
340
749
  0
DIMSTYLE
105
7BD
102
{ACAD_REACTORS
330
7BE
102
}
330
A
100
AcDbSymbolTableRecord
100
AcDbDimStyleTableRecord
  2
ME10_DIM_19
 70
     0
 41
3.0
 42
0.5
 44
1.0
 73
     0
 74
     0
 77
     1
 78
     8
140
3.0
147
2.0
172
     1
173
     1
174
     1
175
     1
176
     2
177
     2
271
     2
178
     4
271
     2
340
749
  0
ENDTAB
  0
TABLE
  2
BLOCK_RECORD
  5
1
330
0
100
AcDbSymbolTable
 70
    12
  0
BLOCK_RECORD
  5
1F
330
1
100
AcDbSymbolTableRecord
100
AcDbBlockTableRecord
  2
*Model_Space
340
22
  0
BLOCK_RECORD
  5
1B
330
1
100
AcDbSymbolTableRecord
100
AcDbBlockTableRecord
  2
*Paper_Space
340
1E
  0
BLOCK_RECORD
  5
23
330
1
100
AcDbSymbolTableRecord
100
AcDbBlockTableRecord
  2
*Paper_Space0
340
26
  0
BLOCK_RECORD
  5
4E
330
1
100
AcDbSymbolTableRecord
100
AcDbBlockTableRecord
  2
_formato_A4
340
0
102
{BLKREFS
331
51
102
}
  0
BLOCK_RECORD
  5
74F
330
1
100
AcDbSymbolTableRecord
100
AcDbBlockTableRecord
  2
*D2
340
0
  0
BLOCK_RECORD
  5
75A
330
1
100
AcDbSymbolTableRecord
100
AcDbBlockTableRecord
  2
*D3
340
0
  0
BLOCK_RECORD
  5
765
330
1
100
AcDbSymbolTableRecord
100
AcDbBlockTableRecord
  2
*D4
340
0
  0
BLOCK_RECORD
  5
772
330
1
100
AcDbSymbolTableRecord
100
AcDbBlockTableRecord
  2
*D5
340
0
  0
BLOCK_RECORD
  5
77D
330
1
100
AcDbSymbolTableRecord
100
AcDbBlockTableRecord
  2
*D6
340
0
  0
BLOCK_RECORD
  5
788
330
1
100
AcDbSymbolTableRecord
100
AcDbBlockTableRecord
  2
*D7
340
0
  0
BLOCK_RECORD
  5
793
330
1
100
AcDbSymbolTableRecord
100
AcDbBlockTableRecord
  2
*D8
340
0
  0
BLOCK_RECORD
  5
79E
330
1
100
AcDbSymbolTableRecord
100
AcDbBlockTableRecord
  2
*D9
340
0
  0
BLOCK_RECORD
  5
7A9
330
1
100
AcDbSymbolTableRecord
100
AcDbBlockTableRecord
  2
*D10
340
0
  0
BLOCK_RECORD
  5
7B4
330
1
100
AcDbSymbolTableRecord
100
AcDbBlockTableRecord
  2
*D11
340
0
  0
ENDTAB
  0
ENDSEC
  0
SECTION
  2
BLOCKS
  0
BLOCK
  5
20
330
1F
100
AcDbEntity
  8
0
100
AcDbBlockBegin
  2
*Model_Space
 70
     0
 10
0.0
 20
0.0
 30
0.0
  3
*Model_Space
  1

  0
ENDBLK
  5
21
330
1F
100
AcDbEntity
  8
0
100
AcDbBlockEnd
  0
BLOCK
  5
1C
330
1B
100
AcDbEntity
 67
     1
  8
0
100
AcDbBlockBegin
  2
*Paper_Space
 70
     0
 10
0.0
 20
0.0
 30
0.0
  3
*Paper_Space
  1

  0
ENDBLK
  5
1D
330
1B
100
AcDbEntity
 67
     1
  8
0
100
AcDbBlockEnd
  0
BLOCK
  5
24
330
23
100
AcDbEntity
  8
0
100
AcDbBlockBegin
  2
*Paper_Space0
 70
     0
 10
0.0
 20
0.0
 30
0.0
  3
*Paper_Space0
  1

  0
ENDBLK
  5
25
330
23
100
AcDbEntity
  8
0
100
AcDbBlockEnd
  0
BLOCK
  5
4F
330
4E
100
AcDbEntity
  8
0
100
AcDbBlockBegin
  2
_formato_A4
 70
     0
 10
296.9999999999999
 20
0.0
 30
0.0
  3
_formato_A4
  1

  0
LINE
  5
52
330
4E
100
AcDbEntity
  8
1
  6
Continuous
 62
     7
100
AcDbLine
 10
108.0
 20
9.99999999999986
 30
0.0
 11
138.0
 21
9.99999999999986
 31
0.0
  0
LINE
  5
53
330
4E
100
AcDbEntity
  8
1
  6
Continuous
 62
     7
100
AcDbLine
 10
108.0
 20
14.9999999999999
 30
0.0
 11
138.0
 21
14.9999999999999
 31
0.0
  0
LINE
  5
54
330
4E
100
AcDbEntity
  8
1
  6
Continuous
 62
     7
100
AcDbLine
 10
247.9999999999999
 20
20.0
 30
0.0
 11
247.9999999999999
 21
5.0
 31
0.0
  0
LINE
  5
55
330
4E
100
AcDbEntity
  8
1
  6
Continuous
 62
     7
100
AcDbLine
 10
265.352601377485
 20
20.0
 30
0.0
 11
265.352601377485
 21
5.0
 31
0.0
  0
LINE
  5
56
330
4E
100
AcDbEntity
  8
1
  6
Continuous
 62
     7
100
AcDbLine
 10
138.0
 20
20.0
 30
0.0
 11
138.0
 21
5.0
 31
0.0
  0
LINE
  5
57
330
4E
100
AcDbEntity
  8
1
  6
Continuous
 62
     7
100
AcDbLine
 10
148.5
 20
210.0
 30
0.0
 11
148.5
 21
195.0
 31
0.0
  0
LINE
  5
58
330
4E
100
AcDbEntity
  8
1
  6
Continuous
 62
     7
100
AcDbLine
 10
0.0
 20
0.0
 30
0.0
 11
296.9999999999999
 21
0.0
 31
0.0
  0
LINE
  5
59
330
4E
100
AcDbEntity
  8
1
  6
Continuous
 62
     7
100
AcDbLine
 10
0.0
 20
210.0
 30
0.0
 11
0.0
 21
0.0
 31
0.0
  0
LINE
  5
5A
330
4E
100
AcDbEntity
  8
1
  6
Continuous
 62
     7
100
AcDbLine
 10
296.9999999999999
 20
210.0
 30
0.0
 11
0.0
 21
210.0
 31
0.0
  0
LINE
  5
5B
330
4E
100
AcDbEntity
  8
1
  6
Continuous
 62
     7
100
AcDbLine
 10
296.9999999999999
 20
0.0
 30
0.0
 11
296.9999999999999
 21
210.0
 31
0.0
  0
LINE
  5
5C
330
4E
100
AcDbEntity
  8
1
  6
Continuous
 62
     7
100
AcDbLine
 10
4.99999999999989
 20
5.0
 30
0.0
 11
108.0
 21
5.0
 31
0.0
  0
LINE
  5
5D
330
4E
100
AcDbEntity
  8
1
  6
Continuous
 62
     7
100
AcDbLine
 10
291.9999999999999
 20
5.0
 30
0.0
 11
291.9999999999999
 21
189.0
 31
0.0
  0
LINE
  5
5E
330
4E
100
AcDbEntity
  8
1
  6
Continuous
 62
     7
100
AcDbLine
 10
291.9999999999999
 20
189.0
 30
0.0
 11
4.99999999999989
 21
189.0
 31
0.0
  0
LINE
  5
5F
102
{ACAD_REACTORS
330
A0
102
}
330
4E
100
AcDbEntity
  8
1
  6
Continuous
 62
     7
100
AcDbLine
 10
281.009634022076
 20
10.0774998398326
 30
0.0
 11
281.009634022076
 21
14.9225001601674
 31
0.0
  0
LINE
  5
60
102
{ACAD_REACTORS
330
9D
102
}
330
4E
100
AcDbEntity
  8
1
  6
Continuous
 62
     7
100
AcDbLine
 10
279.6763006887431
 20
12.5
 30
0.0
 11
279.6763006887431
 21
14.2320508075688
 31
0.0
  0
LINE
  5
61
102
{ACAD_REACTORS
330
9D
102
}
330
4E
100
AcDbEntity
  8
1
  6
Continuous
 62
     7
100
AcDbLine
 10
279.6763006887431
 20
14.2320508075688
 30
0.0
 11
278.82063825604
 21
12.75
 31
0.0
  0
LINE
  5
62
102
{ACAD_REACTORS
330
9D
102
}
330
4E
100
AcDbEntity
  8
1
  6
Continuous
 62
     7
100
AcDbLine
 10
278.531963121445
 20
12.75
 30
0.0
 11
277.6763006887431
 21
14.2320508075688
 31
0.0
  0
LINE
  5
63
102
{ACAD_REACTORS
330
9D
102
}
330
4E
100
AcDbEntity
  8
1
  6
Continuous
 62
     7
100
AcDbLine
 10
277.6763006887431
 20
14.2320508075688
 30
0.0
 11
277.6763006887431
 21
12.5
 31
0.0
  0
LINE
  5
64
330
4E
100
AcDbEntity
  8
1
  6
Continuous
 62
     7
100
AcDbLine
 10
270.2598654136011
 20
12.6443642643413
 30
0.0
 11
278.6763006887431
 21
17.5
 31
0.0
  0
LINE
  5
65
330
4E
100
AcDbEntity
  8
1
  6
Continuous
 62
     7
100
AcDbLine
 10
278.6763006887431
 20
17.5
 30
0.0
 11
287.092735963884
 21
12.6443642643413
 31
0.0
  0
LINE
  5
66
330
4E
100
AcDbEntity
  8
1
  6
Continuous
 62
     7
100
AcDbLine
 10
287.092735963884
 20
12.3556357356586
 30
0.0
 11
278.6763006887431
 21
7.5
 31
0.0
  0
LINE
  5
67
330
4E
100
AcDbEntity
  8
1
  6
Continuous
 62
     7
100
AcDbLine
 10
278.6763006887431
 20
7.5
 30
0.0
 11
270.2598654136011
 21
12.3556357356586
 31
0.0
  0
LINE
  5
68
102
{ACAD_REACTORS
330
9D
102
}
330
4E
100
AcDbEntity
  8
1
  6
Continuous
 62
     7
100
AcDbLine
 10
277.009634022076
 20
12.5
 30
0.0
 11
277.009634022076
 21
15.7312173120346
 31
0.0
  0
LINE
  5
69
102
{ACAD_REACTORS
330
9D
102
}
330
4E
100
AcDbEntity
  8
1
  6
Continuous
 62
     7
100
AcDbLine
 10
277.5040677056999
 20
15.8637004182723
 30
0.0
 11
278.6763006887431
 21
13.8333333333333
 31
0.0
  0
LINE
  5
6A
102
{ACAD_REACTORS
330
9D
102
}
330
4E
100
AcDbEntity
  8
1
  6
Continuous
 62
     7
100
AcDbLine
 10
277.009634022076
 20
12.5
 30
0.0
 11
277.009634022076
 21
10.8475850726329
 31
0.0
  0
LINE
  5
6B
102
{ACAD_REACTORS
330
9D
102
}
330
4E
100
AcDbEntity
  8
1
  6
Continuous
 62
     7
100
AcDbLine
 10
277.6763006887431
 20
10.8475850726329
 30
0.0
 11
277.6763006887431
 21
12.5
 31
0.0
  0
LINE
  5
6C
102
{ACAD_REACTORS
330
9D
102
}
330
4E
100
AcDbEntity
  8
1
  6
Continuous
 62
     7
100
AcDbLine
 10
279.6763006887431
 20
12.5
 30
0.0
 11
279.6763006887431
 21
9.3082690706018
 31
0.0
  0
LINE
  5
6D
102
{ACAD_REACTORS
330
9D
102
}
330
4E
100
AcDbEntity
  8
1
  6
Continuous
 62
     7
100
AcDbLine
 10
280.3429673554089
 20
9.3082690706018
 30
0.0
 11
280.3429673554089
 21
15.7312173120346
 31
0.0
  0
LINE
  5
6E
102
{ACAD_REACTORS
330
9D
102
}
330
4E
100
AcDbEntity
  8
1
  6
Continuous
 62
     7
100
AcDbLine
 10
279.848533671786
 20
15.8637004182723
 30
0.0
 11
278.6763006887431
 21
13.8333333333333
 31
0.0
  0
LINE
  5
6F
102
{ACAD_REACTORS
330
9E
102
}
330
4E
100
AcDbEntity
  8
1
  6
Continuous
 62
     7
100
AcDbLine
 10
275.6763006887431
 20
10.2700211480326
 30
0.0
 11
275.6763006887431
 21
14.9225001601674
 31
0.0
  0
LINE
  5
70
102
{ACAD_REACTORS
330
9E
102
}
330
4E
100
AcDbEntity
  8
1
  6
Continuous
 62
     7
100
AcDbLine
 10
276.3429673554089
 20
14.9225001601674
 30
0.0
 11
276.3429673554089
 21
10.2700211480327
 31
0.0
  0
LINE
  5
71
102
{ACAD_REACTORS
330
9E
102
}
330
4E
100
AcDbEntity
  8
1
  6
Continuous
 62
     7
100
AcDbLine
 10
276.3429673554089
 20
10.2700211480327
 30
0.0
 11
278.5095415065729
 21
9.0200745223616
 31
0.0
  0
LINE
  5
72
102
{ACAD_REACTORS
330
9E
102
}
330
4E
100
AcDbEntity
  8
1
  6
Continuous
 62
     7
100
AcDbLine
 10
278.176393204246
 20
8.44261746499581
 30
0.0
 11
276.0098190530829
 21
9.69256409066691
 31
0.0
  0
LINE
  5
73
102
{ACAD_REACTORS
330
9F
102
}
330
4E
100
AcDbEntity
  8
1
  6
Continuous
 62
     7
100
AcDbLine
 10
275.009634022076
 20
14.1532693909367
 30
0.0
 11
275.009634022076
 21
11.0392519172633
 31
0.0
  0
LINE
  5
74
102
{ACAD_REACTORS
330
9F
102
}
330
4E
100
AcDbEntity
  8
1
  6
Continuous
 62
     7
100
AcDbLine
 10
275.009634022076
 20
11.0392519172633
 30
0.0
 11
275.009634022076
 21
10.8467306090632
 31
0.0
  0
LINE
  5
75
102
{ACAD_REACTORS
330
9F
102
}
330
4E
100
AcDbEntity
  8
1
  6
Continuous
 62
     7
100
AcDbLine
 10
274.3429673554089
 20
10.8467306090632
 30
0.0
 11
274.3429673554089
 21
14.1532693909367
 31
0.0
  0
LINE
  5
76
102
{ACAD_REACTORS
330
A0
102
}
330
4E
100
AcDbEntity
  8
1
  6
Continuous
 62
     7
100
AcDbLine
 10
281.5095415065729
 20
15.2112286888503
 30
0.0
 11
282.842874839906
 21
14.4419979196194
 31
0.0
  0
LINE
  5
77
102
{ACAD_REACTORS
330
A0
102
}
330
4E
100
AcDbEntity
  8
1
  6
Continuous
 62
     7
100
AcDbLine
 10
282.50972653758
 20
13.8645408622538
 30
0.0
 11
281.6763006887431
 21
14.345363467352
 31
0.0
  0
LINE
  5
78
102
{ACAD_REACTORS
330
A0
102
}
330
4E
100
AcDbEntity
  8
1
  6
Continuous
 62
     7
100
AcDbLine
 10
281.6763006887431
 20
14.345363467352
 30
0.0
 11
281.6763006887431
 21
12.8333333333333
 31
0.0
  0
LINE
  5
79
102
{ACAD_REACTORS
330
A0
102
}
330
4E
100
AcDbEntity
  8
1
  6
Continuous
 62
     7
100
AcDbLine
 10
281.6763006887431
 20
12.8333333333333
 30
0.0
 11
282.6763006887431
 21
12.8333333333333
 31
0.0
  0
LINE
  5
7A
102
{ACAD_REACTORS
330
A0
102
}
330
4E
100
AcDbEntity
  8
1
  6
Continuous
 62
     7
100
AcDbLine
 10
282.6763006887431
 20
12.1666666666666
 30
0.0
 11
281.6763006887431
 21
12.1666666666666
 31
0.0
  0
LINE
  5
7B
102
{ACAD_REACTORS
330
A0
102
}
330
4E
100
AcDbEntity
  8
1
  6
Continuous
 62
     7
100
AcDbLine
 10
281.6763006887431
 20
12.1666666666666
 30
0.0
 11
281.6763006887431
 21
10.6546365326479
 31
0.0
  0
LINE
  5
7C
102
{ACAD_REACTORS
330
A0
102
}
330
4E
100
AcDbEntity
  8
1
  6
Continuous
 62
     7
100
AcDbLine
 10
281.6763006887431
 20
10.6546365326479
 30
0.0
 11
282.50972653758
 21
11.1354591377462
 31
0.0
  0
LINE
  5
7D
102
{ACAD_REACTORS
330
A0
102
}
330
4E
100
AcDbEntity
  8
1
  6
Continuous
 62
     7
100
AcDbLine
 10
282.842874839906
 20
10.5580020803803
 30
0.0
 11
281.5095415065729
 21
9.78877131114973
 31
0.0
  0
LINE
  5
7E
330
4E
100
AcDbEntity
  8
1
  6
Continuous
 62
     7
100
AcDbLine
 10
108.0
 20
25.0
 30
0.0
 11
291.9999999999999
 21
25.0
 31
0.0
  0
LINE
  5
7F
330
4E
100
AcDbEntity
  8
1
  6
Continuous
 62
     7
100
AcDbLine
 10
115.0
 20
20.0
 30
0.0
 11
115.0
 21
25.0
 31
0.0
  0
LINE
  5
80
330
4E
100
AcDbEntity
  8
1
  6
Continuous
 62
     7
100
AcDbLine
 10
133.0
 20
20.0
 30
0.0
 11
133.0
 21
25.0
 31
0.0
  0
LINE
  5
81
330
4E
100
AcDbEntity
  8
1
  6
Continuous
 62
     7
100
AcDbLine
 10
4.99999999999989
 20
189.0
 30
0.0
 11
4.99999999999989
 21
5.0
 31
0.0
  0
LINE
  5
82
330
4E
100
AcDbEntity
  8
1
  6
Continuous
 62
     7
100
AcDbLine
 10
108.0
 20
20.0
 30
0.0
 11
291.9999999999999
 21
20.0
 31
0.0
  0
LINE
  5
83
330
4E
100
AcDbEntity
  8
1
  6
Continuous
 62
     7
100
AcDbLine
 10
108.0
 20
25.0
 30
0.0
 11
108.0
 21
5.0
 31
0.0
  0
LINE
  5
84
330
4E
100
AcDbEntity
  8
1
  6
Continuous
 62
     7
100
AcDbLine
 10
108.0
 20
5.0
 30
0.0
 11
291.9999999999999
 21
5.0
 31
0.0
  0
ARC
  5
85
102
{ACAD_REACTORS
330
9D
102
}
330
4E
100
AcDbEntity
  8
1
  6
Continuous
 62
     7
100
AcDbCircle
 10
278.6763006887431
 20
12.8333333333333
 30
0.0
 40
0.1666666666672217
100
AcDbArc
 50
209.9999999998767
 51
329.9999999999279
  0
ARC
  5
86
102
{ACAD_REACTORS
330
9E
102
}
330
4E
100
AcDbEntity
  8
1
  6
Continuous
 62
     7
100
AcDbCircle
 10
276.3429673554089
 20
10.2700211480327
 30
0.0
 40
0.666666666665833
100
AcDbArc
 50
180.0000000000087
 51
240.018360631179
  0
ARC
  5
87
330
4E
100
AcDbEntity
  8
1
  6
Continuous
 62
     7
100
AcDbCircle
 10
270.343152489183
 20
12.5
 30
0.0
 40
0.1666666666666998
100
AcDbArc
 50
119.9816393689606
 51
240.0183606310565
  0
ARC
  5
88
330
4E
100
AcDbEntity
  8
1
  6
Continuous
 62
     7
100
AcDbCircle
 10
287.009448888303
 20
12.5
 30
0.0
 40
0.1666666666663598
100
AcDbArc
 50
299.9816393686896
 51
60.01836063129329
  0
ARC
  5
89
102
{ACAD_REACTORS
330
A0
102
}
330
4E
100
AcDbEntity
  8
1
  6
Continuous
 62
     7
100
AcDbCircle
 10
281.3429673554089
 20
14.9225001601674
 30
0.0
 40
0.3333333333337433
100
AcDbArc
 50
60.01836063103966
 51
180.0
  0
ARC
  5
8A
102
{ACAD_REACTORS
330
A0
102
}
330
4E
100
AcDbEntity
  8
1
  6
Continuous
 62
     7
100
AcDbCircle
 10
281.3429673554089
 20
10.0774998398326
 30
0.0
 40
0.3333333333329165
100
AcDbArc
 50
180.0
 51
299.9816393689629
  0
ARC
  5
8B
102
{ACAD_REACTORS
330
9D
102
}
330
4E
100
AcDbEntity
  8
1
  6
Continuous
 62
     7
100
AcDbCircle
 10
277.274600234551
 20
15.7312173120346
 30
0.0
 40
0.264966212476014
100
AcDbArc
 50
29.99999999992336
 51
180.0
  0
ARC
  5
8C
102
{ACAD_REACTORS
330
9D
102
}
330
4E
100
AcDbEntity
  8
1
  6
Continuous
 62
     7
100
AcDbCircle
 10
277.3429673554089
 20
10.8475850726329
 30
0.0
 40
0.3333333333329165
100
AcDbArc
 50
180.0
 51
0.0
  0
ARC
  5
8D
102
{ACAD_REACTORS
330
9D
102
}
330
4E
100
AcDbEntity
  8
1
  6
Continuous
 62
     7
100
AcDbCircle
 10
280.009634022076
 20
9.3082690706018
 30
0.0
 40
0.3333333333329165
100
AcDbArc
 50
180.0
 51
0.0
  0
ARC
  5
8E
102
{ACAD_REACTORS
330
9D
102
}
330
4E
100
AcDbEntity
  8
1
  6
Continuous
 62
     7
100
AcDbCircle
 10
280.0780011429339
 20
15.7312173120346
 30
0.0
 40
0.2649662124750307
100
AcDbArc
 50
0.0
 51
149.9999999999599
  0
ARC
  5
8F
102
{ACAD_REACTORS
330
9E
102
}
330
4E
100
AcDbEntity
  8
1
  6
Continuous
 62
     7
100
AcDbCircle
 10
276.009634022076
 20
14.9225001601674
 30
0.0
 40
0.3333333333329165
100
AcDbArc
 50
0.0
 51
180.0
  0
ARC
  5
90
102
{ACAD_REACTORS
330
9E
102
}
330
4E
100
AcDbEntity
  8
1
  6
Continuous
 62
     7
100
AcDbCircle
 10
278.3429673554089
 20
8.7313459936787
 30
0.0
 40
0.3333333333332227
100
AcDbArc
 50
240.0183606311911
 51
60.01836063103995
  0
ARC
  5
91
102
{ACAD_REACTORS
330
9F
102
}
330
4E
100
AcDbEntity
  8
1
  6
Continuous
 62
     7
100
AcDbCircle
 10
274.6763006887431
 20
14.1532693909367
 30
0.0
 40
0.3333333333329165
100
AcDbArc
 50
0.0
 51
180.0
  0
ARC
  5
92
102
{ACAD_REACTORS
330
9F
102
}
330
4E
100
AcDbEntity
  8
1
  6
Continuous
 62
     7
100
AcDbCircle
 10
274.6763006887431
 20
10.8467306090632
 30
0.0
 40
0.333333333334167
100
AcDbArc
 50
180.0
 51
0.0
  0
ARC
  5
93
102
{ACAD_REACTORS
330
A0
102
}
330
4E
100
AcDbEntity
  8
1
  6
Continuous
 62
     7
100
AcDbCircle
 10
282.6763006887431
 20
14.1532693909367
 30
0.0
 40
0.3333333333333172
100
AcDbArc
 50
240.0183606311666
 51
60.01836063117491
  0
ARC
  5
94
102
{ACAD_REACTORS
330
A0
102
}
330
4E
100
AcDbEntity
  8
1
  6
Continuous
 62
     7
100
AcDbCircle
 10
282.6763006887431
 20
12.5
 30
0.0
 40
0.3333333333333997
100
AcDbArc
 50
270.0
 51
90.0
  0
ARC
  5
95
102
{ACAD_REACTORS
330
A0
102
}
330
4E
100
AcDbEntity
  8
1
  6
Continuous
 62
     7
100
AcDbCircle
 10
282.6763006887431
 20
10.8467306090632
 30
0.0
 40
0.3333333333332335
100
AcDbArc
 50
299.9816393688079
 51
119.9816393688249
  0
MTEXT
  5
97
330
4E
100
AcDbEntity
  8
1
 62
     7
100
AcDbMText
 10
109.0
 20
7.49999999999987
 30
0.0
 40
3.0
 41
0.0
 71
     4
 72
     1
  1
Sign.
  7
CONVERTER_11
 73
     1
 44
0.75727272727273
  0
MTEXT
  5
98
330
4E
100
AcDbEntity
  8
1
 62
     7
100
AcDbMText
 10
109.0
 20
12.4999999999999
 30
0.0
 40
3.0
 41
0.0
 71
     4
 72
     1
  1
Date
  7
CONVERTER_11
 73
     1
 44
0.75727272727273
  0
MTEXT
  5
9A
330
4E
100
AcDbEntity
  8
1
 62
     7
100
AcDbMText
 10
123.0
 20
17.4999999999999
 30
0.0
 40
2.5
 41
0.0
 71
     5
 72
     1
  1
dimensions in mm
  7
CONVERTER_12
 73
     1
 44
0.75727272727273
  0
MTEXT
  5
9B
330
4E
100
AcDbEntity
  8
1
 62
     7
100
AcDbMText
 10
151.5
 20
194.0
 30
0.0
 40
4.0
 41
0.0
 71
     5
 72
     1
  1
Diritti riservati      All rights reserved
  7
CONVERTER_11
 73
     1
 44
0.75727272727273
  0
MTEXT
  5
9C
330
4E
100
AcDbEntity
  8
1
 62
     7
100
AcDbMText
 10
256.6763006887431
 20
16.260639420756
 30
0.0
 40
3.0
 41
0.0
 71
     5
 72
     1
  1
Scale
  7
CONVERTER_11
 73
     1
 44
0.75727272727273
  0
HATCH
  5
9D
330
4E
100
AcDbEntity
  8
1
  6
Continuous
 62
     7
100
AcDbHatch
 10
0.0
 20
0.0
 30
0.0
210
0.0
220
0.0
230
1.0
  2
SOLID
 70
     1
 71
     1
 91
        1
 92
        1
 93
       16
 72
     2
 10
277.274600234551
 20
15.7312173120346
 40
0.264966212476014
 50
29.99999999992336
 51
180.0
 73
     1
 72
     1
 10
277.009634022076
 20
15.7312173120346
 11
277.009634022076
 21
12.5
 72
     1
 10
277.009634022076
 20
12.5
 11
277.009634022076
 21
10.8475850726329
 72
     2
 10
277.3429673554089
 20
10.8475850726329
 40
0.3333333333329165
 50
180.0
 51
360.0
 73
     1
 72
     1
 10
277.6763006887431
 20
10.8475850726329
 11
277.6763006887431
 21
12.5
 72
     1
 10
277.6763006887431
 20
12.5
 11
277.6763006887431
 21
14.2320508075688
 72
     1
 10
277.6763006887431
 20
14.2320508075688
 11
278.531963121445
 21
12.75
 72
     2
 10
278.6763006887431
 20
12.8333333333333
 40
0.1666666666672217
 50
209.9999999998767
 51
329.9999999999279
 73
     1
 72
     1
 10
278.82063825604
 20
12.75
 11
279.6763006887431
 21
14.2320508075688
 72
     1
 10
279.6763006887431
 20
14.2320508075688
 11
279.6763006887431
 21
12.5
 72
     1
 10
279.6763006887431
 20
12.5
 11
279.6763006887431
 21
9.3082690706018
 72
     2
 10
280.009634022076
 20
9.3082690706018
 40
0.3333333333329165
 50
180.0
 51
360.0
 73
     1
 72
     1
 10
280.3429673554089
 20
9.3082690706018
 11
280.3429673554089
 21
15.7312173120346
 72
     2
 10
280.0780011429339
 20
15.7312173120346
 40
0.2649662124750307
 50
0.0
 51
149.9999999999599
 73
     1
 72
     1
 10
279.848533671786
 20
15.8637004182723
 11
278.6763006887431
 21
13.8333333333333
 72
     1
 10
278.6763006887431
 20
13.8333333333333
 11
277.5040677056999
 21
15.8637004182723
 97
       16
330
6E
330
8E
330
6D
330
8D
330
6C
330
60
330
61
330
85
330
62
330
63
330
6B
330
8C
330
6A
330
68
330
8B
330
69
 75
     0
 76
     1
 98
        1
 10
0.0
 20
0.0
  0
HATCH
  5
9E
330
4E
100
AcDbEntity
  8
1
  6
Continuous
 62
     7
100
AcDbHatch
 10
0.0
 20
0.0
 30
0.0
210
0.0
220
0.0
230
1.0
  2
SOLID
 70
     1
 71
     1
 91
        1
 92
        1
 93
        7
 72
     1
 10
276.3429673554089
 20
14.9225001601674
 11
276.3429673554089
 21
10.2700211480327
 72
     1
 10
276.3429673554089
 20
10.2700211480327
 11
278.5095415065729
 21
9.0200745223616
 72
     2
 10
278.3429673554089
 20
8.731345993678698
 40
0.3333333333332227
 50
299.98163936896
 51
479.9816393688089
 73
     0
 72
     1
 10
278.176393204246
 20
8.44261746499581
 11
276.0098190530829
 21
9.69256409066691
 72
     2
 10
276.3429673554089
 20
10.2700211480327
 40
0.666666666665833
 50
119.981639368821
 51
179.9999999999913
 73
     0
 72
     1
 10
275.6763006887431
 20
10.2700211480326
 11
275.6763006887431
 21
14.9225001601674
 72
     2
 10
276.009634022076
 20
14.9225001601674
 40
0.3333333333329165
 50
180.0
 51
360.0
 73
     0
 97
        7
330
70
330
71
330
90
330
72
330
86
330
6F
330
8F
 75
     0
 76
     1
 98
        1
 10
0.0
 20
0.0
  0
HATCH
  5
9F
330
4E
100
AcDbEntity
  8
1
  6
Continuous
 62
     7
100
AcDbHatch
 10
0.0
 20
0.0
 30
0.0
210
0.0
220
0.0
230
1.0
  2
SOLID
 70
     1
 71
     1
 91
        1
 92
        1
 93
        5
 72
     1
 10
275.009634022076
 20
14.1532693909367
 11
275.009634022076
 21
11.0392519172633
 72
     1
 10
275.009634022076
 20
11.0392519172633
 11
275.009634022076
 21
10.8467306090632
 72
     2
 10
274.6763006887431
 20
10.8467306090632
 40
0.333333333334167
 50
0.0
 51
180.0
 73
     0
 72
     1
 10
274.3429673554089
 20
10.8467306090632
 11
274.3429673554089
 21
14.1532693909367
 72
     2
 10
274.6763006887431
 20
14.1532693909367
 40
0.3333333333329165
 50
180.0
 51
360.0
 73
     0
 97
        5
330
73
330
74
330
92
330
75
330
91
 75
     0
 76
     1
 98
        1
 10
0.0
 20
0.0
  0
HATCH
  5
A0
330
4E
100
AcDbEntity
  8
1
  6
Continuous
 62
     7
100
AcDbHatch
 10
0.0
 20
0.0
 30
0.0
210
0.0
220
0.0
230
1.0
  2
SOLID
 70
     1
 71
     1
 91
        1
 92
        1
 93
       14
 72
     1
 10
282.50972653758
 20
13.8645408622538
 11
281.6763006887431
 21
14.345363467352
 72
     1
 10
281.6763006887431
 20
14.345363467352
 11
281.6763006887431
 21
12.8333333333333
 72
     1
 10
281.6763006887431
 20
12.8333333333333
 11
282.6763006887431
 21
12.8333333333333
 72
     2
 10
282.6763006887431
 20
12.5
 40
0.3333333333333997
 50
270.0
 51
450.0
 73
     0
 72
     1
 10
282.6763006887431
 20
12.1666666666666
 11
281.6763006887431
 21
12.1666666666666
 72
     1
 10
281.6763006887431
 20
12.1666666666666
 11
281.6763006887431
 21
10.6546365326479
 72
     1
 10
281.6763006887431
 20
10.6546365326479
 11
282.50972653758
 21
11.1354591377462
 72
     2
 10
282.6763006887431
 20
10.8467306090632
 40
0.3333333333332335
 50
240.0183606311751
 51
420.0183606311921
 73
     0
 72
     1
 10
282.842874839906
 20
10.5580020803803
 11
281.5095415065729
 21
9.78877131114973
 72
     2
 10
281.3429673554089
 20
10.0774998398326
 40
0.3333333333329165
 50
60.01836063103707
 51
180.0
 73
     0
 72
     1
 10
281.009634022076
 20
10.0774998398326
 11
281.009634022076
 21
14.9225001601674
 72
     2
 10
281.3429673554089
 20
14.9225001601674
 40
0.3333333333337433
 50
180.0
 51
299.9816393689604
 73
     0
 72
     1
 10
281.5095415065729
 20
15.2112286888503
 11
282.842874839906
 21
14.4419979196194
 72
     2
 10
282.6763006887431
 20
14.1532693909367
 40
0.3333333333333172
 50
299.9816393688251
 51
479.9816393688335
 73
     0
 97
       14
330
76
330
89
330
5F
330
8A
330
7D
330
95
330
7C
330
7B
330
7A
330
94
330
79
330
78
330
77
330
93
 75
     0
 76
     1
 98
        1
 10
0.0
 20
0.0
  0
ENDBLK
  5
50
330
4E
100
AcDbEntity
  8
0
100
AcDbBlockEnd
  0
BLOCK
  5
756
330
74F
100
AcDbEntity
  8
0
100
AcDbBlockBegin
  2
*D2
 70
     1
 10
0.0
 20
0.0
 30
0.0
  3
*D2
  1

  0
LINE
  5
750
330
74F
100
AcDbEntity
  8
1
  6
Continuous
 62
     2
100
AcDbLine
 10
276.800620375251
 20
144.7560916498933
 30
0.0
 11
276.800620375251
 21
67.75609164989288
 31
0.0
  0
LINE
  5
751
330
74F
100
AcDbEntity
  8
1
  6
Continuous
 62
     2
100
AcDbLine
 10
257.0109295254539
 20
67.75609164989288
 30
0.0
 11
277.800620375251
 21
67.75609164989288
 31
0.0
  0
LINE
  5
752
330
74F
100
AcDbEntity
  8
1
  6
Continuous
 62
     2
100
AcDbLine
 10
250.560929525459
 20
144.7560916498933
 30
0.0
 11
277.800620375251
 21
144.7560916498933
 31
0.0
  0
SOLID
  5
753
330
74F
100
AcDbEntity
  8
1
 62
     2
100
AcDbTrace
 10
277.1955778680132
 20
141.7560916498933
 30
0.0
 11
276.4056628824889
 21
141.7560916498933
 31
0.0
 12
276.800620375251
 22
144.7560916498933
 32
0.0
 13
276.800620375251
 23
144.7560916498933
 33
0.0
  0
SOLID
  5
754
330
74F
100
AcDbEntity
  8
1
 62
     2
100
AcDbTrace
 10
276.4056628824889
 20
70.75609164989288
 30
0.0
 11
277.1955778680132
 21
70.75609164989288
 31
0.0
 12
276.800620375251
 22
67.75609164989288
 32
0.0
 13
276.800620375251
 23
67.75609164989288
 33
0.0
  0
MTEXT
  5
755
330
74F
100
AcDbEntity
  8
1
 62
     4
100
AcDbMText
 10
274.800620375251
 20
104.0060916498931
 30
0.0
 40
3.0
 41
0.0
 71
     7
 72
     1
  1
77
  7
CONVERTER_13
 11
0.0
 21
1.0
 31
0.0
 73
     1
 44
0.60024009603842
  0
ENDBLK
  5
757
330
74F
100
AcDbEntity
  8
0
100
AcDbBlockEnd
  0
BLOCK
  5
761
330
75A
100
AcDbEntity
  8
0
100
AcDbBlockBegin
  2
*D3
 70
     1
 10
0.0
 20
0.0
 30
0.0
  3
*D3
  1

  0
LINE
  5
75B
330
75A
100
AcDbEntity
  8
1
  6
Continuous
 62
     2
100
AcDbLine
 10
256.5109295254639
 20
176.027756459946
 30
0.0
 11
199.5109295254639
 21
176.027756459946
 31
0.0
  0
LINE
  5
75C
330
75A
100
AcDbEntity
  8
1
  6
Continuous
 62
     2
100
AcDbLine
 10
199.5109295254639
 20
142.2560916498933
 30
0.0
 11
199.5109295254639
 21
177.027756459946
 31
0.0
  0
LINE
  5
75D
330
75A
100
AcDbEntity
  8
1
  6
Continuous
 62
     2
100
AcDbLine
 10
256.5109295254639
 20
142.2560916498933
 30
0.0
 11
256.5109295254639
 21
177.027756459946
 31
0.0
  0
SOLID
  5
75E
330
75A
100
AcDbEntity
  8
1
 62
     2
100
AcDbTrace
 10
253.5109295254639
 20
175.6327989671838
 30
0.0
 11
253.5109295254639
 21
176.4227139527082
 31
0.0
 12
256.5109295254639
 22
176.027756459946
 32
0.0
 13
256.5109295254639
 23
176.027756459946
 33
0.0
  0
SOLID
  5
75F
330
75A
100
AcDbEntity
  8
1
 62
     2
100
AcDbTrace
 10
202.5109295254639
 20
176.4227139527082
 30
0.0
 11
202.5109295254639
 21
175.6327989671838
 31
0.0
 12
199.5109295254639
 22
176.027756459946
 32
0.0
 13
199.5109295254639
 23
176.027756459946
 33
0.0
  0
MTEXT
  5
760
330
75A
100
AcDbEntity
  8
1
 62
     4
100
AcDbMText
 10
225.7609295254639
 20
178.027756459946
 30
0.0
 40
3.0
 41
0.0
 71
     7
 72
     1
  1
58
  7
CONVERTER_13
 11
0.9999999999970619
 21
2.424068405545306E-6
 31
0.0
 73
     1
 44
0.60024009603842
  0
ENDBLK
  5
762
330
75A
100
AcDbEntity
  8
0
100
AcDbBlockEnd
  0
BLOCK
  5
76E
330
765
100
AcDbEntity
  8
0
100
AcDbBlockBegin
  2
*D4
 70
     1
 10
0.0
 20
0.0
 30
0.0
  3
*D4
  1

  0
LINE
  5
766
330
765
100
AcDbEntity
  8
1
  6
Continuous
 62
     2
100
AcDbLine
 10
192.306307080971
 20
71.7560916498929
 30
0.0
 11
192.306307080971
 21
83.4614222368223
 31
0.0
  0
LINE
  5
767
330
765
100
AcDbEntity
  8
1
  6
Continuous
 62
     2
100
AcDbLine
 10
192.306307080971
 20
67.7560916498929
 30
0.0
 11
192.306307080971
 21
71.7560916498929
 31
0.0
  0
LINE
  5
768
330
765
100
AcDbEntity
  8
1
  6
Continuous
 62
     2
100
AcDbLine
 10
192.306307080971
 20
61.75609164989289
 30
0.0
 11
192.306307080971
 21
67.7560916498929
 31
0.0
  0
LINE
  5
769
330
765
100
AcDbEntity
  8
1
  6
Continuous
 62
     2
100
AcDbLine
 10
199.0109295254539
 20
71.7560916498929
 30
0.0
 11
191.306307080971
 21
71.7560916498929
 31
0.0
  0
LINE
  5
76A
330
765
100
AcDbEntity
  8
1
  6
Continuous
 62
     2
100
AcDbLine
 10
199.0109295254539
 20
67.7560916498929
 30
0.0
 11
191.306307080971
 21
67.7560916498929
 31
0.0
  0
SOLID
  5
76B
330
765
100
AcDbEntity
  8
1
 62
     2
100
AcDbTrace
 10
192.7012645737332
 20
64.7560916498929
 30
0.0
 11
191.9113495882088
 21
64.7560916498929
 31
0.0
 12
192.306307080971
 22
67.7560916498929
 32
0.0
 13
192.306307080971
 23
67.7560916498929
 33
0.0
  0
SOLID
  5
76C
330
765
100
AcDbEntity
  8
1
 62
     2
100
AcDbTrace
 10
191.9113495882088
 20
74.7560916498929
 30
0.0
 11
192.7012645737332
 21
74.7560916498929
 31
0.0
 12
192.306307080971
 22
71.7560916498929
 32
0.0
 13
192.306307080971
 23
71.7560916498929
 33
0.0
  0
MTEXT
  5
76D
330
765
100
AcDbEntity
  8
1
 62
     4
100
AcDbMText
 10
190.306307080971
 20
81.66142223682229
 30
0.0
 40
3.0
 41
0.0
 71
     7
 72
     1
  1
4
  7
CONVERTER_13
 11
0.0
 21
1.0
 31
0.0
 73
     1
 44
0.60024009603842
  0
ENDBLK
  5
76F
330
765
100
AcDbEntity
  8
0
100
AcDbBlockEnd
  0
BLOCK
  5
779
330
772
100
AcDbEntity
  8
0
100
AcDbBlockBegin
  2
*D5
 70
     1
 10
0.0
 20
0.0
 30
0.0
  3
*D5
  1

  0
LINE
  5
773
330
772
100
AcDbEntity
  8
1
  6
Continuous
 62
     2
100
AcDbLine
 10
166.19983125126
 20
105.7560916498933
 30
0.0
 11
166.19983125126
 21
73.7560916498929
 31
0.0
  0
LINE
  5
774
330
772
100
AcDbEntity
  8
1
  6
Continuous
 62
     2
100
AcDbLine
 10
154.3708641744299
 20
73.7560916498929
 30
0.0
 11
167.19983125126
 21
73.7560916498929
 31
0.0
  0
LINE
  5
775
330
772
100
AcDbEntity
  8
1
  6
Continuous
 62
     2
100
AcDbLine
 10
154.3708641744299
 20
105.7560916498933
 30
0.0
 11
167.19983125126
 21
105.7560916498933
 31
0.0
  0
SOLID
  5
776
330
772
100
AcDbEntity
  8
1
 62
     2
100
AcDbTrace
 10
166.5947887440222
 20
102.7560916498933
 30
0.0
 11
165.8048737584978
 21
102.7560916498933
 31
0.0
 12
166.19983125126
 22
105.7560916498933
 32
0.0
 13
166.19983125126
 23
105.7560916498933
 33
0.0
  0
SOLID
  5
777
330
772
100
AcDbEntity
  8
1
 62
     2
100
AcDbTrace
 10
165.8048737584978
 20
76.7560916498929
 30
0.0
 11
166.5947887440222
 21
76.7560916498929
 31
0.0
 12
166.19983125126
 22
73.7560916498929
 32
0.0
 13
166.19983125126
 23
73.7560916498929
 33
0.0
  0
MTEXT
  5
778
330
772
100
AcDbEntity
  8
1
 62
     4
100
AcDbMText
 10
164.19983125126
 20
85.85609164989309
 30
0.0
 40
3.0
 41
0.0
 71
     7
 72
     1
  1
M32
  7
CONVERTER_13
 11
0.0
 21
1.0
 31
0.0
 73
     1
 44
0.60024009603842
  0
ENDBLK
  5
77A
330
772
100
AcDbEntity
  8
0
100
AcDbBlockEnd
  0
BLOCK
  5
784
330
77D
100
AcDbEntity
  8
0
100
AcDbBlockBegin
  2
*D6
 70
     1
 10
0.0
 20
0.0
 30
0.0
  3
*D6
  1

  0
LINE
  5
77E
330
77D
100
AcDbEntity
  8
1
  6
Continuous
 62
     2
100
AcDbLine
 10
175.905493963791
 20
144.7560916498933
 30
0.0
 11
175.905493963791
 21
67.75609164989288
 31
0.0
  0
LINE
  5
77F
330
77D
100
AcDbEntity
  8
1
  6
Continuous
 62
     2
100
AcDbLine
 10
153.3708641744299
 20
67.75609164989288
 30
0.0
 11
176.905493963791
 21
67.75609164989288
 31
0.0
  0
LINE
  5
780
330
77D
100
AcDbEntity
  8
1
  6
Continuous
 62
     2
100
AcDbLine
 10
141.4208641744299
 20
144.7560916498933
 30
0.0
 11
176.905493963791
 21
144.7560916498933
 31
0.0
  0
SOLID
  5
781
330
77D
100
AcDbEntity
  8
1
 62
     2
100
AcDbTrace
 10
176.3004514565532
 20
141.7560916498933
 30
0.0
 11
175.5105364710288
 21
141.7560916498933
 31
0.0
 12
175.905493963791
 22
144.7560916498933
 32
0.0
 13
175.905493963791
 23
144.7560916498933
 33
0.0
  0
SOLID
  5
782
330
77D
100
AcDbEntity
  8
1
 62
     2
100
AcDbTrace
 10
175.5105364710288
 20
70.75609164989288
 30
0.0
 11
176.3004514565532
 21
70.75609164989288
 31
0.0
 12
175.905493963791
 22
67.75609164989288
 32
0.0
 13
175.905493963791
 23
67.75609164989288
 33
0.0
  0
MTEXT
  5
783
330
77D
100
AcDbEntity
  8
1
 62
     4
100
AcDbMText
 10
173.905493963791
 20
104.0060916498931
 30
0.0
 40
3.0
 41
0.0
 71
     7
 72
     1
  1
77
  7
CONVERTER_13
 11
0.0
 21
1.0
 31
0.0
 73
     1
 44
0.60024009603842
  0
ENDBLK
  5
785
330
77D
100
AcDbEntity
  8
0
100
AcDbBlockEnd
  0
BLOCK
  5
78F
330
788
100
AcDbEntity
  8
0
100
AcDbBlockBegin
  2
*D7
 70
     1
 10
0.0
 20
0.0
 30
0.0
  3
*D7
  1

  0
LINE
  5
789
330
788
100
AcDbEntity
  8
1
  6
Continuous
 62
     2
100
AcDbLine
 10
164.3048141461459
 20
175.255562060131
 30
0.0
 11
24.43691420271341
 21
175.255562060131
 31
0.0
  0
LINE
  5
78A
330
788
100
AcDbEntity
  8
1
  6
Continuous
 62
     2
100
AcDbLine
 10
24.43691420271342
 20
129.0560916498931
 30
0.0
 11
24.43691420271342
 21
176.255562060131
 31
0.0
  0
LINE
  5
78B
330
788
100
AcDbEntity
  8
1
  6
Continuous
 62
     2
100
AcDbLine
 10
164.3048141461459
 20
127.2560916498933
 30
0.0
 11
164.3048141461459
 21
176.255562060131
 31
0.0
  0
SOLID
  5
78C
330
788
100
AcDbEntity
  8
1
 62
     2
100
AcDbTrace
 10
161.3048141461459
 20
174.8606045673688
 30
0.0
 11
161.3048141461459
 21
175.6505195528932
 31
0.0
 12
164.3048141461459
 22
175.255562060131
 32
0.0
 13
164.3048141461459
 23
175.255562060131
 33
0.0
  0
SOLID
  5
78D
330
788
100
AcDbEntity
  8
1
 62
     2
100
AcDbTrace
 10
27.43691420271341
 20
175.6505195528932
 30
0.0
 11
27.43691420271341
 21
174.8606045673688
 31
0.0
 12
24.43691420271341
 22
175.255562060131
 32
0.0
 13
24.43691420271341
 23
175.255562060131
 33
0.0
  0
MTEXT
  5
78E
330
788
100
AcDbEntity
  8
1
 62
     4
100
AcDbMText
 10
89.34586417442966
 20
177.555562060131
 30
0.0
 40
3.0
 41
0.0
 71
     7
 72
     1
  1
142,5
  7
CONVERTER_13
 11
0.9999999999970619
 21
2.424068405545306E-6
 31
0.0
 73
     1
 44
0.60024009603842
  0
ENDBLK
  5
790
330
788
100
AcDbEntity
  8
0
100
AcDbBlockEnd
  0
BLOCK
  5
79A
330
793
100
AcDbEntity
  8
0
100
AcDbBlockBegin
  2
*D8
 70
     1
 10
0.0
 20
0.0
 30
0.0
  3
*D8
  1

  0
LINE
  5
794
330
793
100
AcDbEntity
  8
1
  6
Continuous
 62
     2
100
AcDbLine
 10
205.5109295254559
 20
54.2625141295425
 30
0.0
 11
250.5109295254559
 21
54.2625141295425
 31
0.0
  0
LINE
  5
795
330
793
100
AcDbEntity
  8
1
  6
Continuous
 62
     2
100
AcDbLine
 10
250.5109295254559
 20
64.7560916498929
 30
0.0
 11
250.5109295254559
 21
53.2625141295425
 31
0.0
  0
LINE
  5
796
330
793
100
AcDbEntity
  8
1
  6
Continuous
 62
     2
100
AcDbLine
 10
205.5109295254559
 20
64.7560916498929
 30
0.0
 11
205.5109295254559
 21
53.2625141295425
 31
0.0
  0
SOLID
  5
797
330
793
100
AcDbEntity
  8
1
 62
     2
100
AcDbTrace
 10
208.5109295254559
 20
54.65747162230469
 30
0.0
 11
208.5109295254559
 21
53.86755663678031
 31
0.0
 12
205.5109295254559
 22
54.2625141295425
 32
0.0
 13
205.5109295254559
 23
54.2625141295425
 33
0.0
  0
SOLID
  5
798
330
793
100
AcDbEntity
  8
1
 62
     2
100
AcDbTrace
 10
247.5109295254559
 20
53.86755663678031
 30
0.0
 11
247.5109295254559
 21
54.65747162230469
 31
0.0
 12
250.5109295254559
 22
54.2625141295425
 32
0.0
 13
250.5109295254559
 23
54.2625141295425
 33
0.0
  0
MTEXT
  5
799
330
793
100
AcDbEntity
  8
1
 62
     4
100
AcDbMText
 10
225.7609295254559
 20
56.2625141295425
 30
0.0
 40
3.0
 41
0.0
 71
     7
 72
     1
  1
45
  7
CONVERTER_13
 11
0.9999999999970619
 21
2.424068405545306E-6
 31
0.0
 73
     1
 44
0.60024009603842
  0
ENDBLK
  5
79B
330
793
100
AcDbEntity
  8
0
100
AcDbBlockEnd
  0
BLOCK
  5
7A5
330
79E
100
AcDbEntity
  8
0
100
AcDbBlockBegin
  2
*D9
 70
     1
 10
0.0
 20
0.0
 30
0.0
  3
*D9
  1

  0
LINE
  5
79F
330
79E
100
AcDbEntity
  8
1
  6
Continuous
 62
     2
100
AcDbLine
 10
199.5109295254539
 20
41.6
 30
0.0
 11
256.5109295254539
 21
41.6
 31
0.0
  0
LINE
  5
7A0
330
79E
100
AcDbEntity
  8
1
  6
Continuous
 62
     2
100
AcDbLine
 10
256.5109295254539
 20
67.2560916498929
 30
0.0
 11
256.5109295254539
 21
40.6
 31
0.0
  0
LINE
  5
7A1
330
79E
100
AcDbEntity
  8
1
  6
Continuous
 62
     2
100
AcDbLine
 10
199.5109295254539
 20
67.2560916498929
 30
0.0
 11
199.5109295254539
 21
40.6
 31
0.0
  0
SOLID
  5
7A2
330
79E
100
AcDbEntity
  8
1
 62
     2
100
AcDbTrace
 10
202.5109295254539
 20
41.99495749276219
 30
0.0
 11
202.5109295254539
 21
41.20504250723781
 31
0.0
 12
199.5109295254539
 22
41.6
 32
0.0
 13
199.5109295254539
 23
41.6
 33
0.0
  0
SOLID
  5
7A3
330
79E
100
AcDbEntity
  8
1
 62
     2
100
AcDbTrace
 10
253.5109295254539
 20
41.20504250723781
 30
0.0
 11
253.5109295254539
 21
41.99495749276219
 31
0.0
 12
256.5109295254539
 22
41.6
 32
0.0
 13
256.5109295254539
 23
41.6
 33
0.0
  0
MTEXT
  5
7A4
330
79E
100
AcDbEntity
  8
1
 62
     4
100
AcDbMText
 10
225.7609295254539
 20
43.6
 30
0.0
 40
3.0
 41
0.0
 71
     7
 72
     1
  1
57
  7
CONVERTER_13
 11
0.9999999999970619
 21
2.424068405545306E-6
 31
0.0
 73
     1
 44
0.60024009603842
  0
ENDBLK
  5
7A6
330
79E
100
AcDbEntity
  8
0
100
AcDbBlockEnd
  0
BLOCK
  5
7B0
330
7A9
100
AcDbEntity
  8
0
100
AcDbBlockBegin
  2
*D10
 70
     1
 10
0.0
 20
0.0
 30
0.0
  3
*D10
  1

  0
LINE
  5
7AA
330
7A9
100
AcDbEntity
  8
1
  6
Continuous
 62
     2
100
AcDbLine
 10
35.87086417442953
 20
41.6
 30
0.0
 11
152.8708641744299
 21
41.6
 31
0.0
  0
LINE
  5
7AB
330
7A9
100
AcDbEntity
  8
1
  6
Continuous
 62
     2
100
AcDbLine
 10
152.8708641744299
 20
67.2560916498929
 30
0.0
 11
152.8708641744299
 21
40.6
 31
0.0
  0
LINE
  5
7AC
330
7A9
100
AcDbEntity
  8
1
  6
Continuous
 62
     2
100
AcDbLine
 10
35.87086417442953
 20
67.2560916498929
 30
0.0
 11
35.87086417442953
 21
40.6
 31
0.0
  0
SOLID
  5
7AD
330
7A9
100
AcDbEntity
  8
1
 62
     2
100
AcDbTrace
 10
38.87086417442953
 20
41.99495749276219
 30
0.0
 11
38.87086417442953
 21
41.20504250723781
 31
0.0
 12
35.87086417442953
 22
41.6
 32
0.0
 13
35.87086417442953
 23
41.6
 33
0.0
  0
SOLID
  5
7AE
330
7A9
100
AcDbEntity
  8
1
 62
     2
100
AcDbTrace
 10
149.8708641744299
 20
41.20504250723781
 30
0.0
 11
149.8708641744299
 21
41.99495749276219
 31
0.0
 12
152.8708641744299
 22
41.6
 32
0.0
 13
152.8708641744299
 23
41.6
 33
0.0
  0
MTEXT
  5
7AF
330
7A9
100
AcDbEntity
  8
1
 62
     4
100
AcDbMText
 10
91.67086417442972
 20
43.6
 30
0.0
 40
3.0
 41
0.0
 71
     7
 72
     1
  1
117
  7
CONVERTER_13
 11
0.9999999999970619
 21
2.424068405545306E-6
 31
0.0
 73
     1
 44
0.60024009603842
  0
ENDBLK
  5
7B1
330
7A9
100
AcDbEntity
  8
0
100
AcDbBlockEnd
  0
BLOCK
  5
7BB
330
7B4
100
AcDbEntity
  8
0
100
AcDbBlockBegin
  2
*D11
 70
     1
 10
0.0
 20
0.0
 30
0.0
  3
*D11
  1

  0
LINE
  5
7B5
330
7B4
100
AcDbEntity
  8
1
  6
Continuous
 62
     2
100
AcDbLine
 10
41.87086417442953
 20
54.2625141295425
 30
0.0
 11
146.8708641744299
 21
54.2625141295425
 31
0.0
  0
LINE
  5
7B6
330
7B4
100
AcDbEntity
  8
1
  6
Continuous
 62
     2
100
AcDbLine
 10
146.8708641744299
 20
64.7560916498929
 30
0.0
 11
146.8708641744299
 21
53.2625141295425
 31
0.0
  0
LINE
  5
7B7
330
7B4
100
AcDbEntity
  8
1
  6
Continuous
 62
     2
100
AcDbLine
 10
41.87086417442953
 20
64.7560916498929
 30
0.0
 11
41.87086417442953
 21
53.2625141295425
 31
0.0
  0
SOLID
  5
7B8
330
7B4
100
AcDbEntity
  8
1
 62
     2
100
AcDbTrace
 10
44.87086417442953
 20
54.65747162230469
 30
0.0
 11
44.87086417442953
 21
53.86755663678031
 31
0.0
 12
41.87086417442953
 22
54.2625141295425
 32
0.0
 13
41.87086417442953
 23
54.2625141295425
 33
0.0
  0
SOLID
  5
7B9
330
7B4
100
AcDbEntity
  8
1
 62
     2
100
AcDbTrace
 10
143.8708641744299
 20
53.86755663678031
 30
0.0
 11
143.8708641744299
 21
54.65747162230469
 31
0.0
 12
146.8708641744299
 22
54.2625141295425
 32
0.0
 13
146.8708641744299
 23
54.2625141295425
 33
0.0
  0
MTEXT
  5
7BA
330
7B4
100
AcDbEntity
  8
1
 62
     4
100
AcDbMText
 10
91.22086417442972
 20
56.2625141295425
 30
0.0
 40
3.0
 41
0.0
 71
     7
 72
     1
  1
105
  7
CONVERTER_13
 11
0.9999999999970619
 21
2.424068405545306E-6
 31
0.0
 73
     1
 44
0.60024009603842
  0
ENDBLK
  5
7BC
330
7B4
100
AcDbEntity
  8
0
100
AcDbBlockEnd
  0
ENDSEC
  0
SECTION
  2
ENTITIES
  0
INSERT
  5
51
330
1F
100
AcDbEntity
  8
1
100
AcDbBlockReference
  2
_formato_A4
 10
296.9999999999999
 20
0.0
 30
0.0
  0
POINT
  5
A1
330
1F
100
AcDbEntity
  8
Bemaßungen_TC_020513_DIN_
 62
     7
100
AcDbPoint
 10
152.8708641744299
 20
105.7560916498933
 30
0.0
  0
POINT
  5
A2
330
1F
100
AcDbEntity
  8
Bemaßungen_TC_020513_DIN_
 62
     7
100
AcDbPoint
 10
152.8708641744299
 20
73.7560916498929
 30
0.0
  0
POINT
  5
A3
330
1F
100
AcDbEntity
  8
Bemaßungen_TC_020513_DIN_
 62
     7
100
AcDbPoint
 10
24.43691420271343
 20
126.7560916498933
 30
0.0
  0
POINT
  5
A4
330
1F
100
AcDbEntity
  8
Bemaßungen_TC_020513_DIN_
 62
     7
100
AcDbPoint
 10
164.3048141461459
 20
126.7560916498933
 30
0.0
  0
POINT
  5
A5
330
1F
100
AcDbEntity
  8
Bemaßungen_TC_020513_DIN_
 62
     7
100
AcDbPoint
 10
41.87086417442954
 20
65.2560916498929
 30
0.0
  0
POINT
  5
A6
330
1F
100
AcDbEntity
  8
Bemaßungen_TC_020513_DIN_
 62
     7
100
AcDbPoint
 10
146.8708641744299
 20
65.2560916498929
 30
0.0
  0
POINT
  5
A7
330
1F
100
AcDbEntity
  8
Bemaßungen_TC_020513_DIN_
 62
     7
100
AcDbPoint
 10
35.87086417442954
 20
69.7560916498929
 30
0.0
  0
POINT
  5
A8
330
1F
100
AcDbEntity
  8
Bemaßungen_TC_020513_DIN_
 62
     7
100
AcDbPoint
 10
152.8708641744299
 20
69.7560916498929
 30
0.0
  0
POINT
  5
A9
330
1F
100
AcDbEntity
  8
Bemaßungen_TC_020513_DIN_
 62
     7
100
AcDbPoint
 10
133.8708641744299
 20
67.7560916498929
 30
0.0
  0
POINT
  5
AA
330
1F
100
AcDbEntity
  8
Bemaßungen_TC_020513_DIN_
 62
     7
100
AcDbPoint
 10
135.1208641744299
 20
144.7560916498933
 30
0.0
  0
POINT
  5
AB
330
1F
100
AcDbEntity
  8
Bemaßungen_TC_020513_DIN_
 62
     7
100
AcDbPoint
 10
205.5109295254559
 20
65.2560916498929
 30
0.0
  0
POINT
  5
AC
330
1F
100
AcDbEntity
  8
Bemaßungen_TC_020513_DIN_
 62
     7
100
AcDbPoint
 10
250.5109295254559
 20
65.2560916498929
 30
0.0
  0
POINT
  5
AD
330
1F
100
AcDbEntity
  8
Bemaßungen_TC_020513_DIN_
 62
     7
100
AcDbPoint
 10
199.5109295254539
 20
69.7560916498929
 30
0.0
  0
POINT
  5
AE
330
1F
100
AcDbEntity
  8
Bemaßungen_TC_020513_DIN_
 62
     7
100
AcDbPoint
 10
256.5109295254539
 20
69.7560916498929
 30
0.0
  0
POINT
  5
AF
330
1F
100
AcDbEntity
  8
Bemaßungen_TC_020513_DIN_
 62
     7
100
AcDbPoint
 10
256.5109295254539
 20
67.7560916498929
 30
0.0
  0
POINT
  5
B0
330
1F
100
AcDbEntity
  8
Bemaßungen_TC_020513_DIN_
 62
     7
100
AcDbPoint
 10
251.1109295254629
 20
162.7560916498933
 30
0.0
  0
POINT
  5
B1
330
1F
100
AcDbEntity
  8
Bemaßungen_TC_020513_DIN_
 62
     7
100
AcDbPoint
 10
199.5109295254539
 20
71.7560916498929
 30
0.0
  0
POINT
  5
B2
330
1F
100
AcDbEntity
  8
Bemaßungen_TC_020513_DIN_
 62
     7
100
AcDbPoint
 10
199.5109295254539
 20
67.7560916498929
 30
0.0
  0
LWPOLYLINE
  5
B3
330
1F
100
AcDbEntity
  8
Sichtbare_Kanten_TC_020513_DIN_
  6
Continuous
 62
     7
100
AcDbPolyline
 90
        2
 70
     0
 43
0.5
 10
152.8708641744299
 20
105.7560916498933
 10
152.8708641744299
 20
73.7560916498929
  0
LINE
  5
B4
330
1F
100
AcDbEntity
  8
1
  6
Continuous
 62
     2
100
AcDbLine
 10
152.8708641744299
 20
105.7560916498933
 30
0.0
 11
153.8708641744299
 21
105.7560916498933
 31
0.0
  0
LWPOLYLINE
  5
B5
330
1F
100
AcDbEntity
  8
Sichtbare_Kanten_TC_020513_DIN_
  6
Continuous
 62
     7
100
AcDbPolyline
 90
        2
 70
     0
 43
0.5
 10
152.8708641744299
 20
73.7560916498929
 10
152.8708641744299
 20
72.59409164989289
  0
LINE
  5
B6
330
1F
100
AcDbEntity
  8
1
  6
Continuous
 62
     2
100
AcDbLine
 10
152.8708641744299
 20
73.7560916498929
 30
0.0
 11
153.8708641744299
 21
73.7560916498929
 31
0.0
  0
LINE
  5
B7
330
1F
100
AcDbEntity
  8
1
  6
Continuous
 62
     2
100
AcDbLine
 10
164.3048141461459
 20
126.7560916498933
 30
0.0
 11
164.3048141461451
 21
127.7560916498933
 31
0.0
  0
LINE
  5
B8
330
1F
100
AcDbEntity
  8
1
  6
Continuous
 62
     2
100
AcDbLine
 10
24.43691420271343
 20
127.7560916498931
 30
0.0
 11
24.43691420271343
 21
128.5560916498931
 31
0.0
  0
LWPOLYLINE
  5
B9
330
1F
100
AcDbEntity
  8
Sichtbare_Kanten_TC_020513_DIN_
  6
Continuous
 62
     7
100
AcDbPolyline
 90
        2
 70
     0
 43
0.5
 10
96.12086417442954
 20
101.1997582610293
 10
96.12086417442954
 20
104.3124250387583
  0
LWPOLYLINE
  5
BA
330
1F
100
AcDbEntity
  8
Sichtbare_Kanten_TC_020513_DIN_
  6
Continuous
 62
     7
100
AcDbPolyline
 90
        2
 70
     0
 43
0.5
 10
97.49575312192202
 20
101.5598544985183
 10
96.49575312192202
 20
100.9831878318513
  0
LWPOLYLINE
  5
BB
330
1F
100
AcDbEntity
  8
Sichtbare_Kanten_TC_020513_DIN_
  6
Continuous
 62
     7
100
AcDbPolyline
 90
        2
 70
     0
 43
0.5
 10
96.62086417442954
 20
101.6325146499273
 10
97.24597522693712
 20
101.9929953568733
  0
LWPOLYLINE
  5
BC
330
1F
100
AcDbEntity
  8
Sichtbare_Kanten_TC_020513_DIN_
  6
Continuous
 62
     7
100
AcDbPolyline
 90
        2
 70
     0
 43
0.5
 10
96.62086417442954
 20
102.5060916498933
 10
96.62086417442954
 20
101.6325146499273
  0
LWPOLYLINE
  5
BD
330
1F
100
AcDbEntity
  8
Sichtbare_Kanten_TC_020513_DIN_
  6
Continuous
 62
     7
100
AcDbPolyline
 90
        2
 70
     0
 43
0.5
 10
97.37086417442954
 20
102.5060916498933
 10
96.62086417442954
 20
102.5060916498933
  0
LWPOLYLINE
  5
BE
330
1F
100
AcDbEntity
  8
Sichtbare_Kanten_TC_020513_DIN_
  6
Continuous
 62
     7
100
AcDbPolyline
 90
        2
 70
     0
 43
0.5
 10
96.62086417442954
 20
103.0060916498933
 10
97.37086417442954
 20
103.0060916498933
  0
LWPOLYLINE
  5
BF
330
1F
100
AcDbEntity
  8
Sichtbare_Kanten_TC_020513_DIN_
  6
Continuous
 62
     7
100
AcDbPolyline
 90
        2
 70
     0
 43
0.5
 10
96.62086417442954
 20
103.8796686498593
 10
96.62086417442954
 20
103.0060916498933
  0
LWPOLYLINE
  5
C0
330
1F
100
AcDbEntity
  8
Sichtbare_Kanten_TC_020513_DIN_
  6
Continuous
 62
     7
100
AcDbPolyline
 90
        2
 70
     0
 43
0.5
 10
97.24597522693706
 20
103.5191879429133
 10
96.62086417442954
 20
103.8796686498593
  0
LWPOLYLINE
  5
C1
330
1F
100
AcDbEntity
  8
Sichtbare_Kanten_TC_020513_DIN_
  6
Continuous
 62
     7
100
AcDbPolyline
 90
        2
 70
     0
 43
0.5
 10
96.49575312192202
 20
104.5289954679353
 10
97.49575312192202
 20
103.9523288012693
  0
LWPOLYLINE
  5
C2
330
1F
100
AcDbEntity
  8
Sichtbare_Kanten_TC_020513_DIN_
  6
Continuous
 62
     7
100
AcDbPolyline
 90
        2
 70
     0
 43
0.5
 10
91.62086417442954
 20
103.7460916498933
 10
91.62086417442954
 20
101.7660916498933
  0
LWPOLYLINE
  5
C3
330
1F
100
AcDbEntity
  8
Sichtbare_Kanten_TC_020513_DIN_
  6
Continuous
 62
     7
100
AcDbPolyline
 90
        2
 70
     0
 43
0.5
 10
91.12086417442954
 20
101.7660916498933
 10
91.12086417442954
 20
103.7460916498933
  0
LWPOLYLINE
  5
C4
330
1F
100
AcDbEntity
  8
Sichtbare_Kanten_TC_020513_DIN_
  6
Continuous
 62
     7
100
AcDbPolyline
 90
        2
 70
     0
 43
0.5
 10
88.37086417442954
 20
102.7560916498933
 10
94.37086417442954
 20
99.2960916498933
  0
LWPOLYLINE
  5
C5
330
1F
100
AcDbEntity
  8
Sichtbare_Kanten_TC_020513_DIN_
  6
Continuous
 62
     7
100
AcDbPolyline
 90
        2
 70
     0
 43
0.5
 10
94.37086417442954
 20
99.2960916498933
 10
100.3708641744295
 20
102.7560916498933
  0
LWPOLYLINE
  5
C6
330
1F
100
AcDbEntity
  8
Sichtbare_Kanten_TC_020513_DIN_
  6
Continuous
 62
     7
100
AcDbPolyline
 90
        2
 70
     0
 43
0.5
 10
100.3708641744295
 20
102.7560916498933
 10
94.37086417442954
 20
106.2160916498933
  0
LWPOLYLINE
  5
C7
330
1F
100
AcDbEntity
  8
Sichtbare_Kanten_TC_020513_DIN_
  6
Continuous
 62
     7
100
AcDbPolyline
 90
        2
 70
     0
 43
0.5
 10
94.37086417442954
 20
106.2160916498933
 10
88.37086417442954
 20
102.7560916498933
  0
LWPOLYLINE
  5
C8
330
1F
100
AcDbEntity
  8
Sichtbare_Kanten_TC_020513_DIN_
  6
Continuous
 62
     7
100
AcDbPolyline
 90
        2
 70
     0
 43
0.5
 10
94.37086417442954
 20
99.00750192766229
 10
87.87041956940284
 20
102.7560916498933
  0
LWPOLYLINE
  5
C9
330
1F
100
AcDbEntity
  8
Sichtbare_Kanten_TC_020513_DIN_
  6
Continuous
 62
     7
100
AcDbPolyline
 90
        2
 70
     0
 43
0.5
 10
100.8713087794563
 20
102.7560916498933
 10
94.37086417442954
 20
99.00750192766229
  0
LWPOLYLINE
  5
CA
330
1F
100
AcDbEntity
  8
Sichtbare_Kanten_TC_020513_DIN_
  6
Continuous
 62
     7
100
AcDbPolyline
 90
        2
 70
     0
 43
0.5
 10
94.37086417442954
 20
106.5046813721253
 10
100.8713087794563
 20
102.7560916498933
  0
LWPOLYLINE
  5
CB
330
1F
100
AcDbEntity
  8
Sichtbare_Kanten_TC_020513_DIN_
  6
Continuous
 62
     7
100
AcDbPolyline
 90
        2
 70
     0
 43
0.5
 10
87.87041956940284
 20
102.7560916498933
 10
94.37086417442954
 20
106.5046813721253
  0
LWPOLYLINE
  5
CC
330
1F
100
AcDbEntity
  8
Sichtbare_Kanten_TC_020513_DIN_
  6
Continuous
 62
     7
100
AcDbPolyline
 90
        2
 70
     0
 43
0.5
 10
94.24597522693712
 20
99.82985449851829
 10
92.24597522693712
 20
100.9831878318513
  0
LWPOLYLINE
  5
CD
330
1F
100
AcDbEntity
  8
Sichtbare_Kanten_TC_020513_DIN_
  6
Continuous
 62
     7
100
AcDbPolyline
 90
        2
 70
     0
 43
0.5
 10
92.62086417442954
 20
101.3441813165943
 10
94.49575312192202
 20
100.2629953568733
  0
LWPOLYLINE
  5
CE
330
1F
100
AcDbEntity
  8
Sichtbare_Kanten_TC_020513_DIN_
  6
Continuous
 62
     7
100
AcDbPolyline
 90
        2
 70
     0
 43
0.5
 10
92.62086417442954
 20
104.3124250387583
 10
92.62086417442954
 20
101.3441813165943
  0
LWPOLYLINE
  5
CF
330
1F
100
AcDbEntity
  8
Sichtbare_Kanten_TC_020513_DIN_
  6
Continuous
 62
     7
100
AcDbPolyline
 90
        2
 70
     0
 43
0.5
 10
92.12086417442954
 20
101.1997582610293
 10
92.12086417442954
 20
104.3124250387583
  0
LWPOLYLINE
  5
D0
330
1F
100
AcDbEntity
  8
Sichtbare_Kanten_TC_020513_DIN_
  6
Continuous
 62
     7
100
AcDbPolyline
 90
        2
 70
     0
 43
0.5
 10
93.62086417442954
 20
104.1364127700723
 10
93.62086417442954
 20
101.7660916498933
  0
LWPOLYLINE
  5
D1
330
1F
100
AcDbEntity
  8
Sichtbare_Kanten_TC_020513_DIN_
  6
Continuous
 62
     7
100
AcDbPolyline
 90
        2
 70
     0
 43
0.5
 10
94.37086417442954
 20
103.1319494669643
 10
93.62086417442954
 20
104.1364127700723
  0
LWPOLYLINE
  5
D2
330
1F
100
AcDbEntity
  8
Sichtbare_Kanten_TC_020513_DIN_
  6
Continuous
 62
     7
100
AcDbPolyline
 90
        2
 70
     0
 43
0.5
 10
95.12086417442954
 20
104.1364127700723
 10
94.37086417442954
 20
103.1319494669643
  0
LWPOLYLINE
  5
D3
330
1F
100
AcDbEntity
  8
Sichtbare_Kanten_TC_020513_DIN_
  6
Continuous
 62
     7
100
AcDbPolyline
 90
        2
 70
     0
 43
0.5
 10
95.12086417442966
 20
100.6230915943623
 10
95.12086417442954
 20
104.1364127700723
  0
LWPOLYLINE
  5
D4
330
1F
100
AcDbEntity
  8
Sichtbare_Kanten_TC_020513_DIN_
  6
Continuous
 62
     7
100
AcDbPolyline
 90
        2
 70
     0
 43
0.5
 10
95.62086417442954
 20
104.8890917054243
 10
95.62086417442954
 20
100.6230915943623
  0
LWPOLYLINE
  5
D5
330
1F
100
AcDbEntity
  8
Sichtbare_Kanten_TC_020513_DIN_
  6
Continuous
 62
     7
100
AcDbPolyline
 90
        2
 70
     0
 43
0.5
 10
94.37086417442954
 20
103.9676651355963
 10
95.17054418905447
 20
105.0386641074893
  0
LWPOLYLINE
  5
D6
330
1F
100
AcDbEntity
  8
Sichtbare_Kanten_TC_020513_DIN_
  6
Continuous
 62
     7
100
AcDbPolyline
 90
        2
 70
     0
 43
0.5
 10
93.57118415980473
 20
105.0386641074893
 10
94.37086417442954
 20
103.9676651355963
  0
LWPOLYLINE
  5
D7
330
1F
100
AcDbEntity
  8
Sichtbare_Kanten_TC_020513_DIN_
  6
Continuous
 62
     7
100
AcDbPolyline
 90
        2
 70
     0
 43
0.5
 10
93.12086417442954
 20
101.7660916498933
 10
93.12086417442954
 20
104.8890917054243
  0
LWPOLYLINE
  5
D8
330
1F
100
AcDbEntity
  8
Sichtbare_Kanten_TC_020513_DIN_
  6
Continuous
 62
     7
100
AcDbPolyline
 90
        2
 70
     0
 43
0.5
 10
54.87086417442966
 20
67.7560916498929
 10
54.87086417442966
 20
71.7560916498929
  0
LWPOLYLINE
  5
D9
330
1F
100
AcDbEntity
  8
Sichtbare_Kanten_TC_020513_DIN_
  6
Continuous
 62
     7
100
AcDbPolyline
 90
        2
 70
     0
 43
0.5
 10
133.8708641744299
 20
67.7560916498929
 10
54.87086417442966
 20
67.7560916498929
  0
LWPOLYLINE
  5
DA
330
1F
100
AcDbEntity
  8
Sichtbare_Kanten_TC_020513_DIN_
  6
Continuous
 62
     7
100
AcDbPolyline
 90
        2
 70
     0
 43
0.5
 10
133.8708641744299
 20
67.7560916498929
 10
133.8708641744299
 20
71.7560916498929
  0
LWPOLYLINE
  5
DB
330
1F
100
AcDbEntity
  8
Sichtbare_Kanten_TC_020513_DIN_
  6
Continuous
 62
     7
100
AcDbPolyline
 90
        2
 70
     0
 43
0.5
 10
44.87086417442966
 20
71.7560916498929
 10
35.87086417442954
 20
71.7560916498929
  0
LWPOLYLINE
  5
DC
330
1F
100
AcDbEntity
  8
Sichtbare_Kanten_TC_020513_DIN_
  6
Continuous
 62
     7
100
AcDbPolyline
 90
        2
 70
     0
 43
0.5
 10
54.87086417442966
 20
71.7560916498929
 10
44.87086417442966
 20
71.7560916498929
  0
LWPOLYLINE
  5
DD
330
1F
100
AcDbEntity
  8
Sichtbare_Kanten_TC_020513_DIN_
  6
Continuous
 62
     7
100
AcDbPolyline
 90
        2
 70
     0
 43
0.5
 10
143.8708641744299
 20
71.7560916498929
 10
133.8708641744299
 20
71.7560916498929
  0
LWPOLYLINE
  5
DE
330
1F
100
AcDbEntity
  8
Sichtbare_Kanten_TC_020513_DIN_
  6
Continuous
 62
     7
100
AcDbPolyline
 90
        2
 70
     0
 43
0.5
 10
152.8708641744299
 20
71.7560916498929
 10
143.8708641744299
 20
71.7560916498929
  0
LWPOLYLINE
  5
DF
330
1F
100
AcDbEntity
  8
Sichtbare_Kanten_TC_020513_DIN_
  6
Continuous
 62
     7
100
AcDbPolyline
 90
        2
 70
     0
 43
0.5
 10
152.8708641744299
 20
67.7560916498929
 10
152.8708641744299
 20
71.7560916498929
  0
LWPOLYLINE
  5
E0
330
1F
100
AcDbEntity
  8
Sichtbare_Kanten_TC_020513_DIN_
  6
Continuous
 62
     7
100
AcDbPolyline
 90
        2
 70
     0
 43
0.5
 10
143.8708641744299
 20
67.7560916498929
 10
143.8708641744299
 20
71.7560916498929
  0
LWPOLYLINE
  5
E1
330
1F
100
AcDbEntity
  8
Sichtbare_Kanten_TC_020513_DIN_
  6
Continuous
 62
     7
100
AcDbPolyline
 90
        2
 70
     0
 43
0.5
 10
152.8708641744299
 20
67.7560916498929
 10
143.8708641744299
 20
67.7560916498929
  0
LWPOLYLINE
  5
E2
330
1F
100
AcDbEntity
  8
Sichtbare_Kanten_TC_020513_DIN_
  6
Continuous
 62
     7
100
AcDbPolyline
 90
        2
 70
     0
 43
0.5
 10
143.8708641744299
 20
67.7560916498929
 10
133.8708641744299
 20
67.7560916498929
  0
LWPOLYLINE
  5
E3
330
1F
100
AcDbEntity
  8
Sichtbare_Kanten_TC_020513_DIN_
  6
Continuous
 62
     7
100
AcDbPolyline
 90
        2
 70
     0
 43
0.5
 10
44.87086417442966
 20
67.7560916498929
 10
44.87086417442966
 20
71.7560916498929
  0
LWPOLYLINE
  5
E4
330
1F
100
AcDbEntity
  8
Sichtbare_Kanten_TC_020513_DIN_
  6
Continuous
 62
     7
100
AcDbPolyline
 90
        2
 70
     0
 43
0.5
 10
54.87086417442966
 20
67.7560916498929
 10
44.87086417442966
 20
67.7560916498929
  0
LWPOLYLINE
  5
E5
330
1F
100
AcDbEntity
  8
Sichtbare_Kanten_TC_020513_DIN_
  6
Continuous
 62
     7
100
AcDbPolyline
 90
        2
 70
     0
 43
0.5
 10
35.87086417442954
 20
67.7560916498929
 10
35.87086417442954
 20
71.7560916498929
  0
LWPOLYLINE
  5
E6
330
1F
100
AcDbEntity
  8
Sichtbare_Kanten_TC_020513_DIN_
  6
Continuous
 62
     7
100
AcDbPolyline
 90
        2
 70
     0
 43
0.5
 10
44.87086417442966
 20
67.7560916498929
 10
35.87086417442954
 20
67.7560916498929
  0
LWPOLYLINE
  5
E7
330
1F
100
AcDbEntity
  8
Sichtbare_Kanten_TC_020513_DIN_
  6
Continuous
 62
     7
100
AcDbPolyline
 90
        2
 70
     0
 43
0.5
 10
135.1208641744299
 20
140.7560916498933
 10
127.7551973664239
 20
140.7560916498933
  0
LWPOLYLINE
  5
E8
330
1F
100
AcDbEntity
  8
Sichtbare_Kanten_TC_020513_DIN_
  6
Continuous
 62
     7
100
AcDbPolyline
 90
        2
 70
     0
 43
0.5
 10
112.0463088540929
 20
140.7560916498933
 10
76.69541949476634
 20
140.7560916498933
  0
LWPOLYLINE
  5
E9
330
1F
100
AcDbEntity
  8
Sichtbare_Kanten_TC_020513_DIN_
  6
Continuous
 62
     7
100
AcDbPolyline
 90
        2
 70
     0
 43
0.5
 10
60.98653098243575
 20
140.7560916498933
 10
53.62086417442954
 20
140.7560916498933
  0
LWPOLYLINE
  5
EA
330
1F
100
AcDbEntity
  8
Sichtbare_Kanten_TC_020513_DIN_
  6
Continuous
 62
     7
100
AcDbPolyline
 90
        2
 70
     0
 43
0.5
 10
47.62086417442954
 20
71.7560916498929
 10
47.62086417442954
 20
84.7623455610334
  0
LWPOLYLINE
  5
EB
330
1F
100
AcDbEntity
  8
Sichtbare_Kanten_TC_020513_DIN_
  6
Continuous
 62
     7
100
AcDbPolyline
 90
        2
 70
     0
 43
0.5
 10
47.62086417442954
 20
140.7560916498933
 10
53.62086417442954
 20
140.7560916498933
  0
LWPOLYLINE
  5
EC
330
1F
100
AcDbEntity
  8
Sichtbare_Kanten_TC_020513_DIN_
  6
Continuous
 62
     7
100
AcDbPolyline
 90
        2
 70
     0
 43
0.5
 10
47.62086417442954
 20
94.74983773875249
 10
47.62086417442954
 20
131.7560916498933
  0
LWPOLYLINE
  5
ED
330
1F
100
AcDbEntity
  8
Sichtbare_Kanten_TC_020513_DIN_
  6
Continuous
 62
     7
100
AcDbPolyline
 90
        2
 70
     0
 43
0.5
 10
47.62086417442954
 20
138.7560916498933
 10
47.62086417442954
 20
140.7560916498933
  0
LWPOLYLINE
  5
EE
330
1F
100
AcDbEntity
  8
Sichtbare_Kanten_TC_020513_DIN_
  6
Continuous
 62
     7
100
AcDbPolyline
 90
        2
 70
     0
 43
0.5
 10
141.1208641744299
 20
94.74983773875249
 10
141.1208641744299
 20
131.7560916498933
  0
LWPOLYLINE
  5
EF
330
1F
100
AcDbEntity
  8
Sichtbare_Kanten_TC_020513_DIN_
  6
Continuous
 62
     7
100
AcDbPolyline
 90
        2
 70
     0
 43
0.5
 10
141.1208641744299
 20
138.7560916498933
 10
141.1208641744299
 20
140.7560916498933
  0
LWPOLYLINE
  5
F0
330
1F
100
AcDbEntity
  8
Sichtbare_Kanten_TC_020513_DIN_
  6
Continuous
 62
     7
100
AcDbPolyline
 90
        2
 70
     0
 43
0.5
 10
135.1208641744299
 20
140.7560916498933
 10
141.1208641744299
 20
140.7560916498933
  0
LWPOLYLINE
  5
F1
330
1F
100
AcDbEntity
  8
Sichtbare_Kanten_TC_020513_DIN_
  6
Continuous
 62
     7
100
AcDbPolyline
 90
        2
 70
     0
 43
0.5
 10
141.1208641744299
 20
71.7560916498929
 10
141.1208641744299
 20
84.7623455610334
  0
LWPOLYLINE
  5
F2
330
1F
100
AcDbEntity
  8
Sichtbare_Kanten_TC_020513_DIN_
  6
Continuous
 62
     7
100
AcDbPolyline
 90
        2
 70
     0
 43
0.5
 10
35.87086417442954
 20
106.7560916498933
 10
35.87086417442954
 20
72.7560916498929
  0
LWPOLYLINE
  5
F3
330
1F
100
AcDbEntity
  8
Sichtbare_Kanten_TC_020513_DIN_
  6
Continuous
 62
     7
100
AcDbPolyline
 90
        2
 70
     0
 43
0.5
 10
47.62086417442954
 20
72.7560916498929
 10
35.87086417442954
 20
72.7560916498929
  0
LWPOLYLINE
  5
F4
330
1F
100
AcDbEntity
  8
Sichtbare_Kanten_TC_020513_DIN_
  6
Continuous
 62
     7
100
AcDbPolyline
 90
        2
 70
     0
 43
0.5
 10
47.62086417442954
 20
106.7560916498933
 10
35.87086417442954
 20
106.7560916498933
  0
LWPOLYLINE
  5
F5
330
1F
100
AcDbEntity
  8
Sichtbare_Kanten_TC_020513_DIN_
  6
Continuous
 62
     7
100
AcDbPolyline
 90
        2
 70
     0
 43
0.5
 10
152.8708641744299
 20
72.7560916498929
 10
141.1208641744299
 20
72.7560916498929
  0
LWPOLYLINE
  5
F6
330
1F
100
AcDbEntity
  8
Sichtbare_Kanten_TC_020513_DIN_
  6
Continuous
 62
     7
100
AcDbPolyline
 90
        2
 70
     0
 43
0.5
 10
152.8708641744299
 20
106.7560916498933
 10
141.1208641744299
 20
106.7560916498933
  0
LWPOLYLINE
  5
F7
330
1F
100
AcDbEntity
  8
Sichtbare_Kanten_TC_020513_DIN_
  6
Continuous
 62
     7
100
AcDbPolyline
 90
        2
 70
     0
 43
0.5
 10
47.82086417442953
 20
144.7560916498933
 10
47.82086417442953
 20
140.7560916498933
  0
LWPOLYLINE
  5
F8
330
1F
100
AcDbEntity
  8
Sichtbare_Kanten_TC_020513_DIN_
  6
Continuous
 62
     7
100
AcDbPolyline
 90
        2
 70
     0
 43
0.5
 10
53.62086417442954
 20
144.7560916498933
 10
47.82086417442953
 20
144.7560916498933
  0
LWPOLYLINE
  5
F9
330
1F
100
AcDbEntity
  8
Sichtbare_Kanten_TC_020513_DIN_
  6
Continuous
 62
     7
100
AcDbPolyline
 90
        2
 70
     0
 43
0.5
 10
53.62086417442954
 20
144.7560916498933
 10
56.23369721225096
 20
144.7560916498933
  0
LWPOLYLINE
  5
FA
330
1F
100
AcDbEntity
  8
Sichtbare_Kanten_TC_020513_DIN_
  6
Continuous
 62
     7
100
AcDbPolyline
 90
        2
 70
     0
 43
0.5
 10
67.37086417442966
 20
144.7560916498933
 10
121.3708641744299
 20
144.7560916498933
  0
LWPOLYLINE
  5
FB
330
1F
100
AcDbEntity
  8
Sichtbare_Kanten_TC_020513_DIN_
  6
Continuous
 62
     7
100
AcDbPolyline
 90
        2
 70
     0
 43
0.5
 10
132.5080311366079
 20
144.7560916498933
 10
135.1208641744299
 20
144.7560916498933
  0
LWPOLYLINE
  5
FC
330
1F
100
AcDbEntity
  8
Sichtbare_Kanten_TC_020513_DIN_
  6
Continuous
 62
     7
100
AcDbPolyline
 90
        2
 70
     0
 43
0.5
 10
140.9208641744299
 20
144.7560916498933
 10
140.9208641744299
 20
140.7560916498933
  0
LWPOLYLINE
  5
FD
330
1F
100
AcDbEntity
  8
Sichtbare_Kanten_TC_020513_DIN_
  6
Continuous
 62
     7
100
AcDbPolyline
 90
        2
 70
     0
 43
0.5
 10
140.9208641744299
 20
144.7560916498933
 10
135.1208641744299
 20
144.7560916498933
  0
LWPOLYLINE
  5
FE
330
1F
100
AcDbEntity
  8
Sichtbare_Kanten_TC_020513_DIN_
  6
Continuous
 62
     7
100
AcDbPolyline
 90
        2
 70
     0
 43
0.5
 10
150.0597530633189
 20
125.5394543473023
 10
153.1708641744299
 20
125.5394543473023
  0
LWPOLYLINE
  5
FF
330
1F
100
AcDbEntity
  8
Sichtbare_Kanten_TC_020513_DIN_
  6
Continuous
 62
     7
100
AcDbPolyline
 90
        2
 70
     0
 43
0.5
 10
150.0597530633189
 20
125.5394543473023
 10
149.6708641744299
 20
125.5394543473023
  0
LWPOLYLINE
  5
100
330
1F
100
AcDbEntity
  8
Sichtbare_Kanten_TC_020513_DIN_
  6
Continuous
 62
     7
100
AcDbPolyline
 90
        2
 70
     0
 43
0.5
 10
142.6708641744299
 20
125.5394543473023
 10
142.633209259422
 20
125.5394543473023
  0
LWPOLYLINE
  5
101
330
1F
100
AcDbEntity
  8
Sichtbare_Kanten_TC_020513_DIN_
  6
Continuous
 62
     7
100
AcDbPolyline
 90
        2
 70
     0
 43
0.5
 10
153.1708641744299
 20
125.5394543473023
 10
153.1708641744299
 20
126.9394543473023
  0
LWPOLYLINE
  5
102
330
1F
100
AcDbEntity
  8
Sichtbare_Kanten_TC_020513_DIN_
  6
Continuous
 62
     7
100
AcDbPolyline
 90
        2
 70
     0
 43
0.5
 10
142.6708641744299
 20
126.9394543473023
 10
142.633209259422
 20
126.9394543473023
  0
LWPOLYLINE
  5
103
330
1F
100
AcDbEntity
  8
Sichtbare_Kanten_TC_020513_DIN_
  6
Continuous
 62
     7
100
AcDbPolyline
 90
        2
 70
     0
 43
0.5
 10
150.0597530633189
 20
126.9394543473023
 10
149.6708641744299
 20
126.9394543473023
  0
LWPOLYLINE
  5
104
330
1F
100
AcDbEntity
  8
Sichtbare_Kanten_TC_020513_DIN_
  6
Continuous
 62
     7
100
AcDbPolyline
 90
        2
 70
     0
 43
0.5
 10
150.0597530633189
 20
126.9394543473023
 10
153.1708641744299
 20
126.9394543473023
  0
LWPOLYLINE
  5
105
330
1F
100
AcDbEntity
  8
Sichtbare_Kanten_TC_020513_DIN_
  6
Continuous
 62
     7
100
AcDbPolyline
 90
        2
 70
     0
 43
0.5
 10
149.6708641744299
 20
128.3394543473023
 10
149.6708641744299
 20
130.7560916498933
  0
LWPOLYLINE
  5
106
330
1F
100
AcDbEntity
  8
Sichtbare_Kanten_TC_020513_DIN_
  6
Continuous
 62
     7
100
AcDbPolyline
 90
        2
 70
     0
 43
0.5
 10
141.6708641744299
 20
138.7560916498933
 10
128.3708641744299
 20
138.7560916498933
  0
LWPOLYLINE
  5
107
330
1F
100
AcDbEntity
  8
Sichtbare_Kanten_TC_020513_DIN_
  6
Continuous
 62
     7
100
AcDbPolyline
 90
        2
 70
     0
 43
0.5
 10
111.3708641744299
 20
137.7560916498933
 10
111.3708641744299
 20
124.2560916498933
  0
LWPOLYLINE
  5
108
330
1F
100
AcDbEntity
  8
Sichtbare_Kanten_TC_020513_DIN_
  6
Continuous
 62
     7
100
AcDbPolyline
 90
        2
 70
     0
 43
0.5
 10
130.3708641744299
 20
131.7560916498933
 10
141.6708641744299
 20
131.7560916498933
  0
LWPOLYLINE
  5
109
330
1F
100
AcDbEntity
  8
Sichtbare_Kanten_TC_020513_DIN_
  6
Continuous
 62
     7
100
AcDbPolyline
 90
        2
 70
     0
 43
0.5
 10
142.6708641744299
 20
130.7560916498933
 10
142.6708641744299
 20
128.3394543473023
  0
LWPOLYLINE
  5
10A
330
1F
100
AcDbEntity
  8
Sichtbare_Kanten_TC_020513_DIN_
  6
Continuous
 62
     7
100
AcDbPolyline
 90
        2
 70
     0
 43
0.5
 10
142.5332092594219
 20
124.6017994322953
 10
141.133209259422
 20
124.6017994322953
  0
LWPOLYLINE
  5
10B
330
1F
100
AcDbEntity
  8
Sichtbare_Kanten_TC_020513_DIN_
  6
Continuous
 62
     7
100
AcDbPolyline
 90
        2
 70
     0
 43
0.5
 10
141.133209259422
 20
125.4394543473023
 10
141.133209259422
 20
124.6017994322953
  0
LWPOLYLINE
  5
10C
330
1F
100
AcDbEntity
  8
Sichtbare_Kanten_TC_020513_DIN_
  6
Continuous
 62
     7
100
AcDbPolyline
 90
        2
 70
     0
 43
0.5
 10
142.5332092594219
 20
125.4394543473023
 10
142.5332092594219
 20
124.6017994322953
  0
LWPOLYLINE
  5
10D
330
1F
100
AcDbEntity
  8
Sichtbare_Kanten_TC_020513_DIN_
  6
Continuous
 62
     7
100
AcDbPolyline
 90
        2
 70
     0
 43
0.5
 10
149.6708641744299
 20
125.5394543473023
 10
142.6708641744299
 20
125.5394543473023
  0
LWPOLYLINE
  5
10E
330
1F
100
AcDbEntity
  8
Sichtbare_Kanten_TC_020513_DIN_
  6
Continuous
 62
     7
100
AcDbPolyline
 90
        2
 70
     0
 43
0.5
 10
142.6708641744299
 20
125.5394543473023
 10
142.6708641744299
 20
128.3394543473023
  0
LWPOLYLINE
  5
10F
330
1F
100
AcDbEntity
  8
Sichtbare_Kanten_TC_020513_DIN_
  6
Continuous
 62
     7
100
AcDbPolyline
 90
        2
 70
     0
 43
0.5
 10
149.6708641744299
 20
128.3394543473023
 10
149.6708641744299
 20
125.5394543473023
  0
LWPOLYLINE
  5
110
330
1F
100
AcDbEntity
  8
Sichtbare_Kanten_TC_020513_DIN_
  6
Continuous
 62
     7
100
AcDbPolyline
 90
        2
 70
     0
 43
0.5
 10
46.07086417442953
 20
125.5394543473023
 10
46.10851908943705
 20
125.5394543473023
  0
LWPOLYLINE
  5
111
330
1F
100
AcDbEntity
  8
Sichtbare_Kanten_TC_020513_DIN_
  6
Continuous
 62
     7
100
AcDbPolyline
 90
        2
 70
     0
 43
0.5
 10
38.68197528554062
 20
125.5394543473023
 10
39.07086417442953
 20
125.5394543473023
  0
LWPOLYLINE
  5
112
330
1F
100
AcDbEntity
  8
Sichtbare_Kanten_TC_020513_DIN_
  6
Continuous
 62
     7
100
AcDbPolyline
 90
        2
 70
     0
 43
0.5
 10
38.68197528554062
 20
125.5394543473023
 10
35.57086417442953
 20
125.5394543473023
  0
LWPOLYLINE
  5
113
330
1F
100
AcDbEntity
  8
Sichtbare_Kanten_TC_020513_DIN_
  6
Continuous
 62
     7
100
AcDbPolyline
 90
        2
 70
     0
 43
0.5
 10
46.20851908943702
 20
124.6017994322943
 10
47.60851908943705
 20
124.6017994322943
  0
LWPOLYLINE
  5
114
330
1F
100
AcDbEntity
  8
Sichtbare_Kanten_TC_020513_DIN_
  6
Continuous
 62
     7
100
AcDbPolyline
 90
        2
 70
     0
 43
0.5
 10
47.60851908943705
 20
125.4394543473023
 10
47.60851908943705
 20
124.6017994322943
  0
LWPOLYLINE
  5
115
330
1F
100
AcDbEntity
  8
Sichtbare_Kanten_TC_020513_DIN_
  6
Continuous
 62
     7
100
AcDbPolyline
 90
        2
 70
     0
 43
0.5
 10
46.20851908943702
 20
125.4394543473023
 10
46.20851908943702
 20
124.6017994322943
  0
LWPOLYLINE
  5
116
330
1F
100
AcDbEntity
  8
Sichtbare_Kanten_TC_020513_DIN_
  6
Continuous
 62
     7
100
AcDbPolyline
 90
        2
 70
     0
 43
0.5
 10
46.07086417442953
 20
126.9394543473023
 10
46.10851908943705
 20
126.9394543473023
  0
LWPOLYLINE
  5
117
330
1F
100
AcDbEntity
  8
Sichtbare_Kanten_TC_020513_DIN_
  6
Continuous
 62
     7
100
AcDbPolyline
 90
        2
 70
     0
 43
0.5
 10
38.68197528554062
 20
126.9394543473023
 10
35.57086417442953
 20
126.9394543473023
  0
LWPOLYLINE
  5
118
330
1F
100
AcDbEntity
  8
Sichtbare_Kanten_TC_020513_DIN_
  6
Continuous
 62
     7
100
AcDbPolyline
 90
        2
 70
     0
 43
0.5
 10
38.68197528554062
 20
126.9394543473023
 10
39.07086417442953
 20
126.9394543473023
  0
LWPOLYLINE
  5
119
330
1F
100
AcDbEntity
  8
Sichtbare_Kanten_TC_020513_DIN_
  6
Continuous
 62
     7
100
AcDbPolyline
 90
        2
 70
     0
 43
0.5
 10
46.07086417442953
 20
130.7560916498933
 10
46.07086417442953
 20
128.3394543473023
  0
LWPOLYLINE
  5
11A
330
1F
100
AcDbEntity
  8
Sichtbare_Kanten_TC_020513_DIN_
  6
Continuous
 62
     7
100
AcDbPolyline
 90
        2
 70
     0
 43
0.5
 10
58.37086417442954
 20
131.7560916498933
 10
47.07086417442953
 20
131.7560916498933
  0
LWPOLYLINE
  5
11B
330
1F
100
AcDbEntity
  8
Sichtbare_Kanten_TC_020513_DIN_
  6
Continuous
 62
     7
100
AcDbPolyline
 90
        2
 70
     0
 43
0.5
 10
77.37086417442954
 20
137.7560916498933
 10
77.37086417442966
 20
124.2560916498933
  0
LWPOLYLINE
  5
11C
330
1F
100
AcDbEntity
  8
Sichtbare_Kanten_TC_020513_DIN_
  6
Continuous
 62
     7
100
AcDbPolyline
 90
        2
 70
     0
 43
0.5
 10
47.07086417442953
 20
138.7560916498933
 10
60.37086417442954
 20
138.7560916498933
  0
LWPOLYLINE
  5
11D
330
1F
100
AcDbEntity
  8
Sichtbare_Kanten_TC_020513_DIN_
  6
Continuous
 62
     7
100
AcDbPolyline
 90
        2
 70
     0
 43
0.5
 10
39.07086417442953
 20
128.3394543473023
 10
39.07086417442953
 20
130.7560916498933
  0
LWPOLYLINE
  5
11E
330
1F
100
AcDbEntity
  8
Sichtbare_Kanten_TC_020513_DIN_
  6
Continuous
 62
     7
100
AcDbPolyline
 90
        2
 70
     0
 43
0.5
 10
35.57086417442953
 20
125.5394543473023
 10
35.57086417442953
 20
126.9394543473023
  0
LWPOLYLINE
  5
11F
330
1F
100
AcDbEntity
  8
Sichtbare_Kanten_TC_020513_DIN_
  6
Continuous
 62
     7
100
AcDbPolyline
 90
        2
 70
     0
 43
0.5
 10
48.34541864800055
 20
157.5995529186833
 10
45.00422687183881
 20
155.5523332340843
  0
LWPOLYLINE
  5
120
330
1F
100
AcDbEntity
  8
Sichtbare_Kanten_TC_020513_DIN_
  6
Continuous
 62
     7
100
AcDbPolyline
 90
        2
 70
     0
 43
0.5
 10
74.87086417442954
 20
127.6184367348853
 10
74.87086417442954
 20
127.6574794687593
  0
LWPOLYLINE
  5
121
330
1F
100
AcDbEntity
  8
Sichtbare_Kanten_TC_020513_DIN_
  6
Continuous
 62
     7
100
AcDbPolyline
 90
        2
 70
     0
 43
0.5
 10
67.37086417442954
 20
144.0806469702293
 10
67.37086417442954
 20
145.7560916498933
  0
LWPOLYLINE
  5
122
330
1F
100
AcDbEntity
  8
Sichtbare_Kanten_TC_020513_DIN_
  6
Continuous
 62
     7
100
AcDbPolyline
 90
        2
 70
     0
 43
0.5
 10
67.37086417442954
 20
145.7560916498933
 10
65.14198623809331
 20
148.9712261805913
  0
LWPOLYLINE
  5
123
330
1F
100
AcDbEntity
  8
Sichtbare_Kanten_TC_020513_DIN_
  6
Continuous
 62
     7
100
AcDbPolyline
 90
        2
 70
     0
 43
0.5
 10
65.08386221875993
 20
149.4293019169073
 10
66.14950722725355
 20
152.3149840530203
  0
LWPOLYLINE
  5
124
330
1F
100
AcDbEntity
  8
Sichtbare_Kanten_TC_020513_DIN_
  6
Continuous
 62
     7
100
AcDbPolyline
 90
        2
 70
     0
 43
0.5
 10
74.63114585525774
 20
162.7560916498933
 10
66.63114585525774
 20
162.7560916498933
  0
LWPOLYLINE
  5
125
330
1F
100
AcDbEntity
  8
Sichtbare_Kanten_TC_020513_DIN_
  6
Continuous
 62
     7
100
AcDbPolyline
 90
        2
 70
     0
 43
0.5
 10
45.00422687183881
 20
145.1170769848883
 10
46.37086417442954
 20
145.1170769848883
  0
LWPOLYLINE
  5
126
330
1F
100
AcDbEntity
  8
Sichtbare_Kanten_TC_020513_DIN_
  6
Continuous
 62
     7
100
AcDbPolyline
 90
        2
 70
     0
 43
0.5
 10
47.15516370061523
 20
145.4966946405023
 10
49.97871441133675
 20
149.0662828220853
  0
LWPOLYLINE
  5
127
330
1F
100
AcDbEntity
  8
Sichtbare_Kanten_TC_020513_DIN_
  6
Continuous
 62
     7
100
AcDbPolyline
 90
        2
 70
     0
 43
0.5
 10
50.68105534662216
 20
149.1482414129853
 10
60.79481223585664
 20
141.1482414129853
  0
LWPOLYLINE
  5
128
330
1F
100
AcDbEntity
  8
Sichtbare_Kanten_TC_020513_DIN_
  6
Continuous
 62
     7
100
AcDbPolyline
 90
        2
 70
     0
 43
0.5
 10
60.98271841270993
 20
140.7996695212663
 10
61.10981876803557
 20
139.3469058121963
  0
LWPOLYLINE
  5
129
330
1F
100
AcDbEntity
  8
Sichtbare_Kanten_TC_020513_DIN_
  6
Continuous
 62
     7
100
AcDbPolyline
 90
        2
 70
     0
 43
0.5
 10
71.93472351279503
 20
127.7560916498933
 10
71.97086417442951
 20
127.7560916498933
  0
LWPOLYLINE
  5
12A
330
1F
100
AcDbEntity
  8
Sichtbare_Kanten_TC_020513_DIN_
  6
Continuous
 62
     7
100
AcDbPolyline
 90
        2
 70
     0
 43
0.5
 10
71.97086417442951
 20
127.7560916498933
 10
71.97086417442951
 20
127.6184367348853
  0
LWPOLYLINE
  5
12B
330
1F
100
AcDbEntity
  8
Sichtbare_Kanten_TC_020513_DIN_
  6
Continuous
 62
     7
100
AcDbPolyline
 90
        2
 70
     0
 43
0.5
 10
43.60422687183883
 20
144.9317817461633
 10
43.60422687183883
 20
143.5568999563903
  0
LWPOLYLINE
  5
12C
330
1F
100
AcDbEntity
  8
Sichtbare_Kanten_TC_020513_DIN_
  6
Continuous
 62
     7
100
AcDbPolyline
 90
        2
 70
     0
 43
0.5
 10
42.20422687183886
 20
143.5568999563903
 10
42.20422687183886
 20
144.9317817461633
  0
LWPOLYLINE
  5
12D
330
1F
100
AcDbEntity
  8
Sichtbare_Kanten_TC_020513_DIN_
  6
Continuous
 62
     7
100
AcDbPolyline
 90
        2
 70
     0
 43
0.5
 10
43.60422687183883
 20
145.1170769848883
 10
43.60422687183883
 20
144.9317817461633
  0
LWPOLYLINE
  5
12E
330
1F
100
AcDbEntity
  8
Sichtbare_Kanten_TC_020513_DIN_
  6
Continuous
 62
     7
100
AcDbPolyline
 90
        2
 70
     0
 43
0.5
 10
42.20422687183886
 20
144.9317817461633
 10
42.20422687183886
 20
145.1170769848883
  0
LWPOLYLINE
  5
12F
330
1F
100
AcDbEntity
  8
Sichtbare_Kanten_TC_020513_DIN_
  6
Continuous
 62
     7
100
AcDbPolyline
 90
        2
 70
     0
 43
0.5
 10
35.86995147904305
 20
156.3337142874783
 10
34.38758956924814
 20
156.3337142874783
  0
LWPOLYLINE
  5
130
330
1F
100
AcDbEntity
  8
Sichtbare_Kanten_TC_020513_DIN_
  6
Continuous
 62
     7
100
AcDbPolyline
 90
        2
 70
     0
 43
0.5
 10
34.38758956924802
 20
154.9337142874783
 10
34.38758956924814
 20
156.3337142874783
  0
LWPOLYLINE
  5
131
330
1F
100
AcDbEntity
  8
Sichtbare_Kanten_TC_020513_DIN_
  6
Continuous
 62
     7
100
AcDbPolyline
 90
        2
 70
     0
 43
0.5
 10
34.38758956924802
 20
154.9337142874783
 10
35.86995147904305
 20
154.9337142874783
  0
LWPOLYLINE
  5
132
330
1F
100
AcDbEntity
  8
Sichtbare_Kanten_TC_020513_DIN_
  6
Continuous
 62
     7
100
AcDbPolyline
 90
        2
 70
     0
 43
0.5
 10
35.86995147904305
 20
156.3337142874783
 10
40.80422687183882
 20
156.3337142874783
  0
LWPOLYLINE
  5
133
330
1F
100
AcDbEntity
  8
Sichtbare_Kanten_TC_020513_DIN_
  6
Continuous
 62
     7
100
AcDbPolyline
 90
        2
 70
     0
 43
0.5
 10
40.80422687183882
 20
154.9337142874783
 10
35.86995147904305
 20
154.9337142874783
  0
LWPOLYLINE
  5
134
330
1F
100
AcDbEntity
  8
Sichtbare_Kanten_TC_020513_DIN_
  6
Continuous
 62
     7
100
AcDbPolyline
 90
        2
 70
     0
 43
0.5
 10
71.97086417442951
 20
127.5184367348853
 10
71.97086417442951
 20
126.1184367348853
  0
LWPOLYLINE
  5
135
330
1F
100
AcDbEntity
  8
Sichtbare_Kanten_TC_020513_DIN_
  6
Continuous
 62
     7
100
AcDbPolyline
 90
        2
 70
     0
 43
0.5
 10
71.97086417442951
 20
126.1184367348853
 10
72.47086417442951
 20
126.1184367348853
  0
LWPOLYLINE
  5
136
330
1F
100
AcDbEntity
  8
Sichtbare_Kanten_TC_020513_DIN_
  6
Continuous
 62
     7
100
AcDbPolyline
 90
        2
 70
     0
 43
0.5
 10
72.47086417442951
 20
127.5184367348853
 10
71.97086417442951
 20
127.5184367348853
  0
LWPOLYLINE
  5
137
330
1F
100
AcDbEntity
  8
Sichtbare_Kanten_TC_020513_DIN_
  6
Continuous
 62
     7
100
AcDbPolyline
 90
        2
 70
     0
 43
0.5
 10
74.37086417442954
 20
126.1184367348853
 10
72.47086417442951
 20
126.1184367348853
  0
LWPOLYLINE
  5
138
330
1F
100
AcDbEntity
  8
Sichtbare_Kanten_TC_020513_DIN_
  6
Continuous
 62
     7
100
AcDbPolyline
 90
        2
 70
     0
 43
0.5
 10
72.47086417442951
 20
127.5184367348853
 10
74.37086417442954
 20
127.5184367348853
  0
LWPOLYLINE
  5
139
330
1F
100
AcDbEntity
  8
Sichtbare_Kanten_TC_020513_DIN_
  6
Continuous
 62
     7
100
AcDbPolyline
 90
        2
 70
     0
 43
0.5
 10
74.37086417442954
 20
126.1184367348853
 10
74.87086417442966
 20
126.1184367348853
  0
LWPOLYLINE
  5
13A
330
1F
100
AcDbEntity
  8
Sichtbare_Kanten_TC_020513_DIN_
  6
Continuous
 62
     7
100
AcDbPolyline
 90
        2
 70
     0
 43
0.5
 10
74.87086417442954
 20
127.5184367348853
 10
74.87086417442966
 20
126.1184367348853
  0
LWPOLYLINE
  5
13B
330
1F
100
AcDbEntity
  8
Sichtbare_Kanten_TC_020513_DIN_
  6
Continuous
 62
     7
100
AcDbPolyline
 90
        2
 70
     0
 43
0.5
 10
74.87086417442954
 20
127.5184367348853
 10
74.37086417442954
 20
127.5184367348853
  0
LWPOLYLINE
  5
13C
330
1F
100
AcDbEntity
  8
Sichtbare_Kanten_TC_020513_DIN_
  6
Continuous
 62
     7
100
AcDbPolyline
 90
        2
 70
     0
 43
0.5
 10
40.14681980130582
 20
135.5217215112133
 10
40.77329301489404
 20
136.8651976532673
  0
LWPOLYLINE
  5
13D
330
1F
100
AcDbEntity
  8
Sichtbare_Kanten_TC_020513_DIN_
  6
Continuous
 62
     7
100
AcDbPolyline
 90
        2
 70
     0
 43
0.5
 10
39.50446211304275
 20
137.4568632197043
 10
38.87798889945454
 20
136.1133870776503
  0
LWPOLYLINE
  5
13E
330
1F
100
AcDbEntity
  8
Sichtbare_Kanten_TC_020513_DIN_
  6
Continuous
 62
     7
100
AcDbPolyline
 90
        2
 70
     0
 43
0.5
 10
38.87798889945454
 20
136.1133870776503
 10
40.14681980130582
 20
135.5217215112133
  0
LWPOLYLINE
  5
13F
330
1F
100
AcDbEntity
  8
Sichtbare_Kanten_TC_020513_DIN_
  6
Continuous
 62
     7
100
AcDbPolyline
 90
        2
 70
     0
 43
0.5
 10
39.50446211304275
 20
137.4568632197043
 10
42.07305777369017
 20
142.9652343899533
  0
LWPOLYLINE
  5
140
330
1F
100
AcDbEntity
  8
Sichtbare_Kanten_TC_020513_DIN_
  6
Continuous
 62
     7
100
AcDbPolyline
 90
        2
 70
     0
 43
0.5
 10
43.34188867554146
 20
142.3735688235163
 10
40.77329301489404
 20
136.8651976532673
  0
LWPOLYLINE
  5
141
330
1F
100
AcDbEntity
  8
Sichtbare_Kanten_TC_020513_DIN_
  6
Continuous
 62
     7
100
AcDbPolyline
 90
        2
 70
     0
 43
0.5
 10
46.07086417442953
 20
125.5394543473023
 10
39.07086417442953
 20
125.5394543473023
  0
LWPOLYLINE
  5
142
330
1F
100
AcDbEntity
  8
Sichtbare_Kanten_TC_020513_DIN_
  6
Continuous
 62
     7
100
AcDbPolyline
 90
        2
 70
     0
 43
0.5
 10
39.07086417442953
 20
125.5394543473023
 10
39.07086417442953
 20
128.3394543473023
  0
LWPOLYLINE
  5
143
330
1F
100
AcDbEntity
  8
Sichtbare_Kanten_TC_020513_DIN_
  6
Continuous
 62
     7
100
AcDbPolyline
 90
        2
 70
     0
 43
0.5
 10
46.07086417442953
 20
128.3394543473023
 10
46.07086417442953
 20
125.5394543473023
  0
LWPOLYLINE
  5
144
330
1F
100
AcDbEntity
  8
Sichtbare_Kanten_TC_020513_DIN_
  6
Continuous
 62
     7
100
AcDbPolyline
 90
        2
 70
     0
 43
0.5
 10
146.110381486408
 20
142.7048999123993
 10
145.399839673318
 20
142.3735688235163
  0
LWPOLYLINE
  5
145
330
1F
100
AcDbEntity
  8
Sichtbare_Kanten_TC_020513_DIN_
  6
Continuous
 62
     7
100
AcDbPolyline
 90
        2
 70
     0
 43
0.5
 10
146.6686705751689
 20
142.9652343899533
 10
146.110381486408
 20
142.7048999123993
  0
LWPOLYLINE
  5
146
330
1F
100
AcDbEntity
  8
Sichtbare_Kanten_TC_020513_DIN_
  6
Continuous
 62
     7
100
AcDbPolyline
 90
        2
 70
     0
 43
0.5
 10
145.9214976240839
 20
143.5568999563903
 10
146.5375014770199
 20
143.5568999563903
  0
LWPOLYLINE
  5
147
330
1F
100
AcDbEntity
  8
Sichtbare_Kanten_TC_020513_DIN_
  6
Continuous
 62
     7
100
AcDbPolyline
 90
        2
 70
     0
 43
0.5
 10
145.1375014770199
 20
143.5568999563903
 10
145.9214976240839
 20
143.5568999563903
  0
LWPOLYLINE
  5
148
330
1F
100
AcDbEntity
  8
Sichtbare_Kanten_TC_020513_DIN_
  6
Continuous
 62
     7
100
AcDbPolyline
 90
        2
 70
     0
 43
0.5
 10
113.8708641744299
 20
127.6184367348853
 10
113.8708641744299
 20
127.5184367348853
  0
LWPOLYLINE
  5
149
330
1F
100
AcDbEntity
  8
Sichtbare_Kanten_TC_020513_DIN_
  6
Continuous
 62
     7
100
AcDbPolyline
 90
        2
 70
     0
 43
0.5
 10
116.7708641744299
 20
127.5184367348853
 10
116.7708641744299
 20
127.6184367348853
  0
LWPOLYLINE
  5
14A
330
1F
100
AcDbEntity
  8
Sichtbare_Kanten_TC_020513_DIN_
  6
Continuous
 62
     7
100
AcDbPolyline
 90
        2
 70
     0
 43
0.5
 10
116.7708641744299
 20
127.7560916498933
 10
116.7708641744299
 20
127.6184367348853
  0
LWPOLYLINE
  5
14B
330
1F
100
AcDbEntity
  8
Sichtbare_Kanten_TC_020513_DIN_
  6
Continuous
 62
     7
100
AcDbPolyline
 90
        2
 70
     0
 43
0.5
 10
116.8070048360639
 20
127.7560916498933
 10
116.7708641744299
 20
127.7560916498933
  0
LWPOLYLINE
  5
14C
330
1F
100
AcDbEntity
  8
Sichtbare_Kanten_TC_020513_DIN_
  6
Continuous
 62
     7
100
AcDbPolyline
 90
        2
 70
     0
 43
0.5
 10
127.7590099361489
 20
140.7996695212663
 10
127.6319095808239
 20
139.3469058121963
  0
LWPOLYLINE
  5
14D
330
1F
100
AcDbEntity
  8
Sichtbare_Kanten_TC_020513_DIN_
  6
Continuous
 62
     7
100
AcDbPolyline
 90
        2
 70
     0
 43
0.5
 10
138.0606730022369
 20
149.1482414129853
 10
127.9469161130019
 20
141.1482414129853
  0
LWPOLYLINE
  5
14E
330
1F
100
AcDbEntity
  8
Sichtbare_Kanten_TC_020513_DIN_
  6
Continuous
 62
     7
100
AcDbPolyline
 90
        2
 70
     0
 43
0.5
 10
141.5865646482439
 20
145.4966946405023
 10
138.7630139375219
 20
149.0662828220853
  0
LWPOLYLINE
  5
14F
330
1F
100
AcDbEntity
  8
Sichtbare_Kanten_TC_020513_DIN_
  6
Continuous
 62
     7
100
AcDbPolyline
 90
        2
 70
     0
 43
0.5
 10
143.7375014770199
 20
145.1170769848883
 10
142.3708641744299
 20
145.1170769848883
  0
LWPOLYLINE
  5
150
330
1F
100
AcDbEntity
  8
Sichtbare_Kanten_TC_020513_DIN_
  6
Continuous
 62
     7
100
AcDbPolyline
 90
        2
 70
     0
 43
0.5
 10
140.3963097008589
 20
157.5995529186833
 10
143.7375014770199
 20
155.5523332340843
  0
LWPOLYLINE
  5
151
330
1F
100
AcDbEntity
  8
Sichtbare_Kanten_TC_020513_DIN_
  6
Continuous
 62
     7
100
AcDbPolyline
 90
        2
 70
     0
 43
0.5
 10
114.1105824936019
 20
162.7560916498933
 10
122.1105824936009
 20
162.7560916498933
  0
LWPOLYLINE
  5
152
330
1F
100
AcDbEntity
  8
Sichtbare_Kanten_TC_020513_DIN_
  6
Continuous
 62
     7
100
AcDbPolyline
 90
        2
 70
     0
 43
0.5
 10
123.6578661300989
 20
149.4293019169073
 10
122.5922211216059
 20
152.3149840530203
  0
LWPOLYLINE
  5
153
330
1F
100
AcDbEntity
  8
Sichtbare_Kanten_TC_020513_DIN_
  6
Continuous
 62
     7
100
AcDbPolyline
 90
        2
 70
     0
 43
0.5
 10
121.3708641744299
 20
145.7560916498933
 10
123.5997421107659
 20
148.9712261805913
  0
LWPOLYLINE
  5
154
330
1F
100
AcDbEntity
  8
Sichtbare_Kanten_TC_020513_DIN_
  6
Continuous
 62
     7
100
AcDbPolyline
 90
        2
 70
     0
 43
0.5
 10
121.3708641744299
 20
144.0806469702293
 10
121.3708641744299
 20
145.7560916498933
  0
LWPOLYLINE
  5
155
330
1F
100
AcDbEntity
  8
Sichtbare_Kanten_TC_020513_DIN_
  6
Continuous
 62
     7
100
AcDbPolyline
 90
        2
 70
     0
 43
0.5
 10
113.8708641744299
 20
127.6184367348853
 10
113.8708641744299
 20
127.6574794687593
  0
LWPOLYLINE
  5
156
330
1F
100
AcDbEntity
  8
Sichtbare_Kanten_TC_020513_DIN_
  6
Continuous
 62
     7
100
AcDbPolyline
 90
        2
 70
     0
 43
0.5
 10
146.5375014770199
 20
143.5568999563903
 10
146.5375014770199
 20
144.9317817461633
  0
LWPOLYLINE
  5
157
330
1F
100
AcDbEntity
  8
Sichtbare_Kanten_TC_020513_DIN_
  6
Continuous
 62
     7
100
AcDbPolyline
 90
        2
 70
     0
 43
0.5
 10
145.1375014770199
 20
144.9317817461633
 10
145.1375014770199
 20
143.5568999563903
  0
LWPOLYLINE
  5
158
330
1F
100
AcDbEntity
  8
Sichtbare_Kanten_TC_020513_DIN_
  6
Continuous
 62
     7
100
AcDbPolyline
 90
        2
 70
     0
 43
0.5
 10
145.1375014770199
 20
145.1170769848883
 10
145.1375014770199
 20
144.9317817461633
  0
LWPOLYLINE
  5
159
330
1F
100
AcDbEntity
  8
Sichtbare_Kanten_TC_020513_DIN_
  6
Continuous
 62
     7
100
AcDbPolyline
 90
        2
 70
     0
 43
0.5
 10
146.5375014770199
 20
144.9317817461633
 10
146.5375014770199
 20
145.1170769848883
  0
LWPOLYLINE
  5
15A
330
1F
100
AcDbEntity
  8
Sichtbare_Kanten_TC_020513_DIN_
  6
Continuous
 62
     7
100
AcDbPolyline
 90
        2
 70
     0
 43
0.5
 10
152.8717768698159
 20
156.3337142874783
 10
154.3541387796109
 20
156.3337142874783
  0
LWPOLYLINE
  5
15B
330
1F
100
AcDbEntity
  8
Sichtbare_Kanten_TC_020513_DIN_
  6
Continuous
 62
     7
100
AcDbPolyline
 90
        2
 70
     0
 43
0.5
 10
154.3541387796109
 20
154.9337142874783
 10
152.8717768698159
 20
154.9337142874783
  0
LWPOLYLINE
  5
15C
330
1F
100
AcDbEntity
  8
Sichtbare_Kanten_TC_020513_DIN_
  6
Continuous
 62
     7
100
AcDbPolyline
 90
        2
 70
     0
 43
0.5
 10
154.3541387796109
 20
154.9337142874783
 10
154.3541387796109
 20
156.3337142874783
  0
LWPOLYLINE
  5
15D
330
1F
100
AcDbEntity
  8
Sichtbare_Kanten_TC_020513_DIN_
  6
Continuous
 62
     7
100
AcDbPolyline
 90
        2
 70
     0
 43
0.5
 10
147.9375014770199
 20
154.9337142874783
 10
152.8717768698159
 20
154.9337142874783
  0
LWPOLYLINE
  5
15E
330
1F
100
AcDbEntity
  8
Sichtbare_Kanten_TC_020513_DIN_
  6
Continuous
 62
     7
100
AcDbPolyline
 90
        2
 70
     0
 43
0.5
 10
152.8717768698159
 20
156.3337142874783
 10
147.9375014770199
 20
156.3337142874783
  0
LWPOLYLINE
  5
15F
330
1F
100
AcDbEntity
  8
Sichtbare_Kanten_TC_020513_DIN_
  6
Continuous
 62
     7
100
AcDbPolyline
 90
        2
 70
     0
 43
0.5
 10
116.7708641744299
 20
126.1184367348853
 10
116.2708641744299
 20
126.1184367348853
  0
LWPOLYLINE
  5
160
330
1F
100
AcDbEntity
  8
Sichtbare_Kanten_TC_020513_DIN_
  6
Continuous
 62
     7
100
AcDbPolyline
 90
        2
 70
     0
 43
0.5
 10
116.7708641744299
 20
127.5184367348853
 10
116.7708641744299
 20
126.1184367348853
  0
LWPOLYLINE
  5
161
330
1F
100
AcDbEntity
  8
Sichtbare_Kanten_TC_020513_DIN_
  6
Continuous
 62
     7
100
AcDbPolyline
 90
        2
 70
     0
 43
0.5
 10
116.2708641744299
 20
127.5184367348853
 10
116.7708641744299
 20
127.5184367348853
  0
LWPOLYLINE
  5
162
330
1F
100
AcDbEntity
  8
Sichtbare_Kanten_TC_020513_DIN_
  6
Continuous
 62
     7
100
AcDbPolyline
 90
        2
 70
     0
 43
0.5
 10
114.3708641744299
 20
126.1184367348853
 10
116.2708641744299
 20
126.1184367348853
  0
LWPOLYLINE
  5
163
330
1F
100
AcDbEntity
  8
Sichtbare_Kanten_TC_020513_DIN_
  6
Continuous
 62
     7
100
AcDbPolyline
 90
        2
 70
     0
 43
0.5
 10
116.2708641744299
 20
127.5184367348853
 10
114.3708641744299
 20
127.5184367348853
  0
LWPOLYLINE
  5
164
330
1F
100
AcDbEntity
  8
Sichtbare_Kanten_TC_020513_DIN_
  6
Continuous
 62
     7
100
AcDbPolyline
 90
        2
 70
     0
 43
0.5
 10
114.3708641744299
 20
126.1184367348853
 10
113.8708641744299
 20
126.1184367348853
  0
LWPOLYLINE
  5
165
330
1F
100
AcDbEntity
  8
Sichtbare_Kanten_TC_020513_DIN_
  6
Continuous
 62
     7
100
AcDbPolyline
 90
        2
 70
     0
 43
0.5
 10
113.8708641744299
 20
127.5184367348853
 10
114.3708641744299
 20
127.5184367348853
  0
LWPOLYLINE
  5
166
330
1F
100
AcDbEntity
  8
Sichtbare_Kanten_TC_020513_DIN_
  6
Continuous
 62
     7
100
AcDbPolyline
 90
        2
 70
     0
 43
0.5
 10
113.8708641744299
 20
127.5184367348853
 10
113.8708641744299
 20
126.1184367348853
  0
LWPOLYLINE
  5
167
330
1F
100
AcDbEntity
  8
Sichtbare_Kanten_TC_020513_DIN_
  6
Continuous
 62
     7
100
AcDbPolyline
 90
        2
 70
     0
 43
0.5
 10
148.5949085475529
 20
135.5217215112133
 10
147.9684353339649
 20
136.8651976532673
  0
LWPOLYLINE
  5
168
330
1F
100
AcDbEntity
  8
Sichtbare_Kanten_TC_020513_DIN_
  6
Continuous
 62
     7
100
AcDbPolyline
 90
        2
 70
     0
 43
0.5
 10
149.8637394494049
 20
136.1133870776503
 10
148.5949085475529
 20
135.5217215112133
  0
LWPOLYLINE
  5
169
330
1F
100
AcDbEntity
  8
Sichtbare_Kanten_TC_020513_DIN_
  6
Continuous
 62
     7
100
AcDbPolyline
 90
        2
 70
     0
 43
0.5
 10
149.2372662358159
 20
137.4568632197043
 10
149.8637394494049
 20
136.1133870776503
  0
LWPOLYLINE
  5
16A
330
1F
100
AcDbEntity
  8
Sichtbare_Kanten_TC_020513_DIN_
  6
Continuous
 62
     7
100
AcDbPolyline
 90
        2
 70
     0
 43
0.5
 10
145.399839673318
 20
142.3735688235163
 10
147.9684353339649
 20
136.8651976532673
  0
LWPOLYLINE
  5
16B
330
1F
100
AcDbEntity
  8
Sichtbare_Kanten_TC_020513_DIN_
  6
Continuous
 62
     7
100
AcDbPolyline
 90
        2
 70
     0
 43
0.5
 10
149.2372662358159
 20
137.4568632197043
 10
146.6686705751689
 20
142.9652343899533
  0
LWPOLYLINE
  5
16C
330
1F
100
AcDbEntity
  8
Sichtbare_Kanten_TC_020513_DIN_
  6
Continuous
 62
     7
100
AcDbPolyline
 90
        2
 70
     0
 43
0.5
 10
147.9375014770199
 20
155.5497154177613
 10
147.9375014770199
 20
154.9337142874783
  0
LWPOLYLINE
  5
16D
330
1F
100
AcDbEntity
  8
Sichtbare_Kanten_TC_020513_DIN_
  6
Continuous
 62
     7
100
AcDbPolyline
 90
        2
 70
     0
 43
0.5
 10
147.9375014770199
 20
156.3337142874783
 10
147.9375014770199
 20
155.5497154177613
  0
LWPOLYLINE
  5
16E
330
1F
100
AcDbEntity
  8
Sichtbare_Kanten_TC_020513_DIN_
  6
Continuous
 62
     7
100
AcDbPolyline
 90
        2
 70
     0
 43
0.5
 10
145.2300001246059
 20
155.1170769848883
 10
146.1776504113749
 20
155.1170769848883
  0
LWPOLYLINE
  5
16F
330
1F
100
AcDbEntity
  8
Sichtbare_Kanten_TC_020513_DIN_
  6
Continuous
 62
     7
100
AcDbPolyline
 90
        2
 70
     0
 43
0.5
 10
146.5375014770199
 20
145.1170769848883
 10
143.7375014770199
 20
145.1170769848883
  0
LWPOLYLINE
  5
170
330
1F
100
AcDbEntity
  8
Sichtbare_Kanten_TC_020513_DIN_
  6
Continuous
 62
     7
100
AcDbPolyline
 90
        2
 70
     0
 43
0.5
 10
146.5375014770199
 20
154.4412871046583
 10
146.5375014770199
 20
145.1170769848883
  0
LWPOLYLINE
  5
171
330
1F
100
AcDbEntity
  8
Sichtbare_Kanten_TC_020513_DIN_
  6
Continuous
 62
     7
100
AcDbPolyline
 90
        2
 70
     0
 43
0.5
 10
42.63134686245191
 20
142.7048999123993
 10
42.07305777369017
 20
142.9652343899533
  0
LWPOLYLINE
  5
172
330
1F
100
AcDbEntity
  8
Sichtbare_Kanten_TC_020513_DIN_
  6
Continuous
 62
     7
100
AcDbPolyline
 90
        2
 70
     0
 43
0.5
 10
43.34188867554146
 20
142.3735688235163
 10
42.63134686245191
 20
142.7048999123993
  0
LWPOLYLINE
  5
173
330
1F
100
AcDbEntity
  8
Sichtbare_Kanten_TC_020513_DIN_
  6
Continuous
 62
     7
100
AcDbPolyline
 90
        2
 70
     0
 43
0.5
 10
42.82023072477581
 20
143.5568999563903
 10
43.60422687183883
 20
143.5568999563903
  0
LWPOLYLINE
  5
174
330
1F
100
AcDbEntity
  8
Sichtbare_Kanten_TC_020513_DIN_
  6
Continuous
 62
     7
100
AcDbPolyline
 90
        2
 70
     0
 43
0.5
 10
42.20422687183886
 20
143.5568999563903
 10
42.82023072477581
 20
143.5568999563903
  0
LWPOLYLINE
  5
175
330
1F
100
AcDbEntity
  8
Sichtbare_Kanten_TC_020513_DIN_
  6
Continuous
 62
     7
100
AcDbPolyline
 90
        2
 70
     0
 43
0.5
 10
71.97086417442951
 20
127.6184367348853
 10
71.97086417442951
 20
127.5184367348853
  0
LWPOLYLINE
  5
176
330
1F
100
AcDbEntity
  8
Sichtbare_Kanten_TC_020513_DIN_
  6
Continuous
 62
     7
100
AcDbPolyline
 90
        2
 70
     0
 43
0.5
 10
74.87086417442954
 20
127.5184367348853
 10
74.87086417442954
 20
127.6184367348853
  0
LWPOLYLINE
  5
177
330
1F
100
AcDbEntity
  8
Sichtbare_Kanten_TC_020513_DIN_
  6
Continuous
 62
     7
100
AcDbPolyline
 90
        2
 70
     0
 43
0.5
 10
40.80422687183882
 20
155.5497154177613
 10
40.80422687183882
 20
156.3337142874783
  0
LWPOLYLINE
  5
178
330
1F
100
AcDbEntity
  8
Sichtbare_Kanten_TC_020513_DIN_
  6
Continuous
 62
     7
100
AcDbPolyline
 90
        2
 70
     0
 43
0.5
 10
40.80422687183882
 20
154.9337142874783
 10
40.80422687183882
 20
155.5497154177613
  0
LWPOLYLINE
  5
179
330
1F
100
AcDbEntity
  8
Sichtbare_Kanten_TC_020513_DIN_
  6
Continuous
 62
     7
100
AcDbPolyline
 90
        2
 70
     0
 43
0.5
 10
42.56407793748402
 20
155.1170769848883
 10
43.51172822425322
 20
155.1170769848883
  0
LWPOLYLINE
  5
17A
330
1F
100
AcDbEntity
  8
Sichtbare_Kanten_TC_020513_DIN_
  6
Continuous
 62
     7
100
AcDbPolyline
 90
        2
 70
     0
 43
0.5
 10
42.20422687183886
 20
145.1170769848883
 10
42.20422687183886
 20
154.4412871046583
  0
LWPOLYLINE
  5
17B
330
1F
100
AcDbEntity
  8
Sichtbare_Kanten_TC_020513_DIN_
  6
Continuous
 62
     7
100
AcDbPolyline
 90
        2
 70
     0
 43
0.5
 10
45.00422687183881
 20
145.1170769848883
 10
42.20422687183886
 20
145.1170769848883
  0
LWPOLYLINE
  5
17C
330
1F
100
AcDbEntity
  8
Gewinde_TC_020513_DIN_
  6
Continuous
 62
     7
100
AcDbPolyline
 90
        2
 70
     0
 43
0.25
 10
152.8708641744299
 20
106.9180916498933
 10
141.1208641744299
 20
106.9180916498933
  0
LWPOLYLINE
  5
17D
330
1F
100
AcDbEntity
  8
Gewinde_TC_020513_DIN_
  6
Continuous
 62
     7
100
AcDbPolyline
 90
        2
 70
     0
 43
0.25
 10
141.1208641744299
 20
72.59409164989289
 10
152.8708641744299
 20
72.59409164989289
  0
LWPOLYLINE
  5
17E
330
1F
100
AcDbEntity
  8
Sichtbare_Kanten_TC_020513_DIN_
  6
Continuous
 62
     7
100
AcDbPolyline
 90
        2
 70
     0
 43
0.5
 10
152.8708641744299
 20
106.9180916498933
 10
152.8708641744299
 20
105.7560916498933
  0
LWPOLYLINE
  5
17F
330
1F
100
AcDbEntity
  8
Sichtbare_Kanten_TC_020513_DIN_
  6
Continuous
 62
     7
100
AcDbPolyline
 90
        2
 70
     0
 43
0.5
 10
256.5109295254539
 20
71.7560916498929
 10
199.5109295254539
 20
71.7560916498929
  0
LWPOLYLINE
  5
180
330
1F
100
AcDbEntity
  8
Sichtbare_Kanten_TC_020513_DIN_
  6
Continuous
 62
     7
100
AcDbPolyline
 90
        2
 70
     0
 43
0.5
 10
199.5109295254539
 20
67.7560916498929
 10
199.5109295254539
 20
71.7560916498929
  0
LWPOLYLINE
  5
181
330
1F
100
AcDbEntity
  8
Sichtbare_Kanten_TC_020513_DIN_
  6
Continuous
 62
     7
100
AcDbPolyline
 90
        2
 70
     0
 43
0.5
 10
256.5109295254539
 20
67.7560916498929
 10
256.5109295254539
 20
71.7560916498929
  0
LWPOLYLINE
  5
182
330
1F
100
AcDbEntity
  8
Sichtbare_Kanten_TC_020513_DIN_
  6
Continuous
 62
     7
100
AcDbPolyline
 90
        2
 70
     0
 43
0.5
 10
256.5109295254539
 20
67.7560916498929
 10
199.5109295254539
 20
67.7560916498929
  0
LWPOLYLINE
  5
183
330
1F
100
AcDbEntity
  8
Sichtbare_Kanten_TC_020513_DIN_
  6
Continuous
 62
     7
100
AcDbPolyline
 90
        2
 70
     0
 43
0.5
 10
250.2609295254589
 20
71.7560916498929
 10
250.2609295254589
 20
125.5394543473023
  0
LWPOLYLINE
  5
184
330
1F
100
AcDbEntity
  8
Sichtbare_Kanten_TC_020513_DIN_
  6
Continuous
 62
     7
100
AcDbPolyline
 90
        2
 70
     0
 43
0.5
 10
250.2609295254589
 20
126.9394543473023
 10
250.2609295254589
 20
140.7560916498933
  0
LWPOLYLINE
  5
185
330
1F
100
AcDbEntity
  8
Sichtbare_Kanten_TC_020513_DIN_
  6
Continuous
 62
     7
100
AcDbPolyline
 90
        2
 70
     0
 43
0.5
 10
244.260929525457
 20
140.7560916498933
 10
250.2609295254589
 20
140.7560916498933
  0
LWPOLYLINE
  5
186
330
1F
100
AcDbEntity
  8
Sichtbare_Kanten_TC_020513_DIN_
  6
Continuous
 62
     7
100
AcDbPolyline
 90
        2
 70
     0
 43
0.5
 10
205.7609295254589
 20
140.7560916498933
 10
211.760929525457
 20
140.7560916498933
  0
LWPOLYLINE
  5
187
330
1F
100
AcDbEntity
  8
Sichtbare_Kanten_TC_020513_DIN_
  6
Continuous
 62
     7
100
AcDbPolyline
 90
        2
 70
     0
 43
0.5
 10
205.7609295254589
 20
71.7560916498929
 10
205.7609295254589
 20
125.5394543473023
  0
LWPOLYLINE
  5
188
330
1F
100
AcDbEntity
  8
Sichtbare_Kanten_TC_020513_DIN_
  6
Continuous
 62
     7
100
AcDbPolyline
 90
        2
 70
     0
 43
0.5
 10
205.7609295254589
 20
126.9394543473023
 10
205.7609295254589
 20
140.7560916498933
  0
LWPOLYLINE
  5
189
330
1F
100
AcDbEntity
  8
Sichtbare_Kanten_TC_020513_DIN_
  6
Continuous
 62
     7
100
AcDbPolyline
 90
        2
 70
     0
 43
0.5
 10
244.260929525457
 20
140.7560916498933
 10
243.220506012461
 20
140.7560916498933
  0
LWPOLYLINE
  5
18A
330
1F
100
AcDbEntity
  8
Sichtbare_Kanten_TC_020513_DIN_
  6
Continuous
 62
     7
100
AcDbPolyline
 90
        2
 70
     0
 43
0.5
 10
212.801353038454
 20
140.7560916498933
 10
211.760929525457
 20
140.7560916498933
  0
LWPOLYLINE
  5
18B
330
1F
100
AcDbEntity
  8
Sichtbare_Kanten_TC_020513_DIN_
  6
Continuous
 62
     7
100
AcDbPolyline
 90
        2
 70
     0
 43
0.5
 10
205.9609295254589
 20
144.7560916498933
 10
205.9609295254589
 20
140.7560916498933
  0
LWPOLYLINE
  5
18C
330
1F
100
AcDbEntity
  8
Sichtbare_Kanten_TC_020513_DIN_
  6
Continuous
 62
     7
100
AcDbPolyline
 90
        2
 70
     0
 43
0.5
 10
211.760929525457
 20
144.7560916498933
 10
205.9609295254589
 20
144.7560916498933
  0
LWPOLYLINE
  5
18D
330
1F
100
AcDbEntity
  8
Sichtbare_Kanten_TC_020513_DIN_
  6
Continuous
 62
     7
100
AcDbPolyline
 90
        2
 70
     0
 43
0.5
 10
211.760929525457
 20
144.7560916498933
 10
211.766124304034
 20
144.7560916498933
  0
LWPOLYLINE
  5
18E
330
1F
100
AcDbEntity
  8
Sichtbare_Kanten_TC_020513_DIN_
  6
Continuous
 62
     7
100
AcDbPolyline
 90
        2
 70
     0
 43
0.5
 10
244.25573474688
 20
144.7560916498933
 10
244.260929525457
 20
144.7560916498933
  0
LWPOLYLINE
  5
18F
330
1F
100
AcDbEntity
  8
Sichtbare_Kanten_TC_020513_DIN_
  6
Continuous
 62
     7
100
AcDbPolyline
 90
        2
 70
     0
 43
0.5
 10
250.060929525459
 20
144.7560916498933
 10
250.060929525459
 20
140.7560916498933
  0
LWPOLYLINE
  5
190
330
1F
100
AcDbEntity
  8
Sichtbare_Kanten_TC_020513_DIN_
  6
Continuous
 62
     7
100
AcDbPolyline
 90
        2
 70
     0
 43
0.5
 10
250.060929525459
 20
144.7560916498933
 10
244.260929525457
 20
144.7560916498933
  0
LWPOLYLINE
  5
191
330
1F
100
AcDbEntity
  8
Sichtbare_Kanten_TC_020513_DIN_
  6
Continuous
 62
     7
100
AcDbPolyline
 90
        2
 70
     0
 43
0.5
 10
250.3609295254639
 20
135.2560916498933
 10
250.3609295254639
 20
140.2560916498933
  0
LWPOLYLINE
  5
192
330
1F
100
AcDbEntity
  8
Sichtbare_Kanten_TC_020513_DIN_
  6
Continuous
 62
     7
100
AcDbPolyline
 90
        2
 70
     0
 43
0.5
 10
255.1109295254639
 20
133.7560916498933
 10
255.1109295254639
 20
141.7560916498933
  0
LWPOLYLINE
  5
193
330
1F
100
AcDbEntity
  8
Sichtbare_Kanten_TC_020513_DIN_
  6
Continuous
 62
     7
100
AcDbPolyline
 90
        2
 70
     0
 43
0.5
 10
256.5109295254639
 20
133.7560916498933
 10
256.5109295254639
 20
141.7560916498933
  0
LWPOLYLINE
  5
194
330
1F
100
AcDbEntity
  8
Sichtbare_Kanten_TC_020513_DIN_
  6
Continuous
 62
     7
100
AcDbPolyline
 90
        2
 70
     0
 43
0.5
 10
205.6609295254639
 20
135.2560916498933
 10
205.6609295254639
 20
140.2560916498933
  0
LWPOLYLINE
  5
195
330
1F
100
AcDbEntity
  8
Sichtbare_Kanten_TC_020513_DIN_
  6
Continuous
 62
     7
100
AcDbPolyline
 90
        2
 70
     0
 43
0.5
 10
200.9109295254639
 20
133.7560916498933
 10
200.9109295254639
 20
141.7560916498933
  0
LWPOLYLINE
  5
196
330
1F
100
AcDbEntity
  8
Sichtbare_Kanten_TC_020513_DIN_
  6
Continuous
 62
     7
100
AcDbPolyline
 90
        2
 70
     0
 43
0.5
 10
199.5109295254639
 20
133.7560916498933
 10
199.5109295254639
 20
141.7560916498933
  0
LWPOLYLINE
  5
197
330
1F
100
AcDbEntity
  8
Sichtbare_Kanten_TC_020513_DIN_
  6
Continuous
 62
     7
100
AcDbPolyline
 90
        2
 70
     0
 43
0.5
 10
250.2609295254639
 20
139.2560916498933
 10
250.3609295254639
 20
139.2560916498933
  0
LWPOLYLINE
  5
198
330
1F
100
AcDbEntity
  8
Sichtbare_Kanten_TC_020513_DIN_
  6
Continuous
 62
     7
100
AcDbPolyline
 90
        2
 70
     0
 43
0.5
 10
250.2609295254639
 20
136.2560916498933
 10
250.3609295254639
 20
136.2560916498933
  0
LWPOLYLINE
  5
199
330
1F
100
AcDbEntity
  8
Sichtbare_Kanten_TC_020513_DIN_
  6
Continuous
 62
     7
100
AcDbPolyline
 90
        2
 70
     0
 43
0.5
 10
254.5109295254639
 20
140.2560916498933
 10
255.1109295254639
 20
140.2560916498933
  0
LWPOLYLINE
  5
19A
330
1F
100
AcDbEntity
  8
Sichtbare_Kanten_TC_020513_DIN_
  6
Continuous
 62
     7
100
AcDbPolyline
 90
        2
 70
     0
 43
0.5
 10
254.5109295254639
 20
135.2560916498933
 10
255.1109295254639
 20
135.2560916498933
  0
LWPOLYLINE
  5
19B
330
1F
100
AcDbEntity
  8
Sichtbare_Kanten_TC_020513_DIN_
  6
Continuous
 62
     7
100
AcDbPolyline
 90
        2
 70
     0
 43
0.5
 10
250.3609295254639
 20
140.2560916498933
 10
250.410929525464
 20
140.2560916498933
  0
LWPOLYLINE
  5
19C
330
1F
100
AcDbEntity
  8
Sichtbare_Kanten_TC_020513_DIN_
  6
Continuous
 62
     7
100
AcDbPolyline
 90
        2
 70
     0
 43
0.5
 10
251.810929525464
 20
140.2560916498933
 10
253.1109295254639
 20
140.2560916498933
  0
LWPOLYLINE
  5
19D
330
1F
100
AcDbEntity
  8
Sichtbare_Kanten_TC_020513_DIN_
  6
Continuous
 62
     7
100
AcDbPolyline
 90
        2
 70
     0
 43
0.5
 10
250.3609295254639
 20
135.2560916498933
 10
250.410929525464
 20
135.2560916498933
  0
LWPOLYLINE
  5
19E
330
1F
100
AcDbEntity
  8
Sichtbare_Kanten_TC_020513_DIN_
  6
Continuous
 62
     7
100
AcDbPolyline
 90
        2
 70
     0
 43
0.5
 10
251.810929525464
 20
135.2560916498933
 10
253.1109295254639
 20
135.2560916498933
  0
LWPOLYLINE
  5
19F
330
1F
100
AcDbEntity
  8
Sichtbare_Kanten_TC_020513_DIN_
  6
Continuous
 62
     7
100
AcDbPolyline
 90
        2
 70
     0
 43
0.5
 10
205.6609295254639
 20
139.2560916498933
 10
205.7609295254639
 20
139.2560916498933
  0
LWPOLYLINE
  5
1A0
330
1F
100
AcDbEntity
  8
Sichtbare_Kanten_TC_020513_DIN_
  6
Continuous
 62
     7
100
AcDbPolyline
 90
        2
 70
     0
 43
0.5
 10
205.6609295254639
 20
136.2560916498933
 10
205.7609295254639
 20
136.2560916498933
  0
LWPOLYLINE
  5
1A1
330
1F
100
AcDbEntity
  8
Sichtbare_Kanten_TC_020513_DIN_
  6
Continuous
 62
     7
100
AcDbPolyline
 90
        2
 70
     0
 43
0.5
 10
200.9109295254639
 20
140.2560916498933
 10
201.5109295254639
 20
140.2560916498933
  0
LWPOLYLINE
  5
1A2
330
1F
100
AcDbEntity
  8
Sichtbare_Kanten_TC_020513_DIN_
  6
Continuous
 62
     7
100
AcDbPolyline
 90
        2
 70
     0
 43
0.5
 10
200.9109295254639
 20
135.2560916498933
 10
201.5109295254639
 20
135.2560916498933
  0
LWPOLYLINE
  5
1A3
330
1F
100
AcDbEntity
  8
Sichtbare_Kanten_TC_020513_DIN_
  6
Continuous
 62
     7
100
AcDbPolyline
 90
        2
 70
     0
 43
0.5
 10
202.9109295254639
 20
140.2560916498933
 10
204.2109295254639
 20
140.2560916498933
  0
LWPOLYLINE
  5
1A4
330
1F
100
AcDbEntity
  8
Sichtbare_Kanten_TC_020513_DIN_
  6
Continuous
 62
     7
100
AcDbPolyline
 90
        2
 70
     0
 43
0.5
 10
205.6109295254639
 20
140.2560916498933
 10
205.6609295254639
 20
140.2560916498933
  0
LWPOLYLINE
  5
1A5
330
1F
100
AcDbEntity
  8
Sichtbare_Kanten_TC_020513_DIN_
  6
Continuous
 62
     7
100
AcDbPolyline
 90
        2
 70
     0
 43
0.5
 10
202.9109295254639
 20
135.2560916498933
 10
204.2109295254639
 20
135.2560916498933
  0
LWPOLYLINE
  5
1A6
330
1F
100
AcDbEntity
  8
Sichtbare_Kanten_TC_020513_DIN_
  6
Continuous
 62
     7
100
AcDbPolyline
 90
        2
 70
     0
 43
0.5
 10
205.6109295254639
 20
135.2560916498933
 10
205.6609295254639
 20
135.2560916498933
  0
LWPOLYLINE
  5
1A7
330
1F
100
AcDbEntity
  8
Sichtbare_Kanten_TC_020513_DIN_
  6
Continuous
 62
     7
100
AcDbPolyline
 90
        2
 70
     0
 43
0.5
 10
214.2275668280479
 20
125.5394543473023
 10
214.2275668280479
 20
125.4394543473023
  0
LWPOLYLINE
  5
1A8
330
1F
100
AcDbEntity
  8
Sichtbare_Kanten_TC_020513_DIN_
  6
Continuous
 62
     7
100
AcDbPolyline
 90
        2
 70
     0
 43
0.5
 10
218.2275668280479
 20
125.4394543473023
 10
218.2275668280479
 20
125.5394543473023
  0
LWPOLYLINE
  5
1A9
330
1F
100
AcDbEntity
  8
Sichtbare_Kanten_TC_020513_DIN_
  6
Continuous
 62
     7
100
AcDbPolyline
 90
        2
 70
     0
 43
0.5
 10
237.7942922228659
 20
125.5394543473023
 10
237.7942922228659
 20
125.4394543473023
  0
LWPOLYLINE
  5
1AA
330
1F
100
AcDbEntity
  8
Sichtbare_Kanten_TC_020513_DIN_
  6
Continuous
 62
     7
100
AcDbPolyline
 90
        2
 70
     0
 43
0.5
 10
241.7942922228659
 20
125.4394543473023
 10
241.7942922228659
 20
125.5394543473023
  0
LWPOLYLINE
  5
1AB
330
1F
100
AcDbEntity
  8
Sichtbare_Kanten_TC_020513_DIN_
  6
Continuous
 62
     7
100
AcDbPolyline
 90
        2
 70
     0
 43
0.5
 10
202.9109295254619
 20
125.9145832167053
 10
202.9109295254649
 20
123.0221512252873
  0
LWPOLYLINE
  5
1AC
330
1F
100
AcDbEntity
  8
Sichtbare_Kanten_TC_020513_DIN_
  6
Continuous
 62
     7
100
AcDbPolyline
 90
        2
 70
     0
 43
0.5
 10
202.9109295254639
 20
144.7560916498933
 10
202.910929525463
 20
144.0480673634723
  0
LWPOLYLINE
  5
1AD
330
1F
100
AcDbEntity
  8
Sichtbare_Kanten_TC_020513_DIN_
  6
Continuous
 62
     7
100
AcDbPolyline
 90
        2
 70
     0
 43
0.5
 10
202.910929525463
 20
144.0480673634723
 10
202.9109295254609
 20
138.9345038998003
  0
LWPOLYLINE
  5
1AE
330
1F
100
AcDbEntity
  8
Sichtbare_Kanten_TC_020513_DIN_
  6
Continuous
 62
     7
100
AcDbPolyline
 90
        2
 70
     0
 43
0.5
 10
202.9109295254609
 20
138.7560916498933
 10
202.9109295254609
 20
138.9345038998003
  0
LWPOLYLINE
  5
1AF
330
1F
100
AcDbEntity
  8
Sichtbare_Kanten_TC_020513_DIN_
  6
Continuous
 62
     7
100
AcDbPolyline
 90
        2
 70
     0
 43
0.5
 10
202.9109295254609
 20
138.7560916498933
 10
202.9109295254549
 20
130.7560916498933
  0
LWPOLYLINE
  5
1B0
330
1F
100
AcDbEntity
  8
Sichtbare_Kanten_TC_020513_DIN_
  6
Continuous
 62
     7
100
AcDbPolyline
 90
        2
 70
     0
 43
0.5
 10
202.9109295254549
 20
128.3394543473023
 10
202.9109295254549
 20
130.7560916498933
  0
LWPOLYLINE
  5
1B1
330
1F
100
AcDbEntity
  8
Sichtbare_Kanten_TC_020513_DIN_
  6
Continuous
 62
     7
100
AcDbPolyline
 90
        2
 70
     0
 43
0.5
 10
201.5109295254549
 20
128.3394543473023
 10
201.5109295254549
 20
130.7560916498933
  0
LWPOLYLINE
  5
1B2
330
1F
100
AcDbEntity
  8
Sichtbare_Kanten_TC_020513_DIN_
  6
Continuous
 62
     7
100
AcDbPolyline
 90
        2
 70
     0
 43
0.5
 10
201.510929525457
 20
138.7560916498933
 10
201.5109295254549
 20
130.7560916498933
  0
LWPOLYLINE
  5
1B3
330
1F
100
AcDbEntity
  8
Sichtbare_Kanten_TC_020513_DIN_
  6
Continuous
 62
     7
100
AcDbPolyline
 90
        2
 70
     0
 43
0.5
 10
201.510929525457
 20
138.7560916498933
 10
201.5109295254609
 20
138.9345038998003
  0
LWPOLYLINE
  5
1B4
330
1F
100
AcDbEntity
  8
Sichtbare_Kanten_TC_020513_DIN_
  6
Continuous
 62
     7
100
AcDbPolyline
 90
        2
 70
     0
 43
0.5
 10
201.5109295254629
 20
144.0480673634723
 10
201.5109295254609
 20
138.9345038998003
  0
LWPOLYLINE
  5
1B5
330
1F
100
AcDbEntity
  8
Sichtbare_Kanten_TC_020513_DIN_
  6
Continuous
 62
     7
100
AcDbPolyline
 90
        2
 70
     0
 43
0.5
 10
201.5109295254639
 20
144.7560916498933
 10
201.5109295254629
 20
144.0480673634723
  0
LWPOLYLINE
  5
1B6
330
1F
100
AcDbEntity
  8
Sichtbare_Kanten_TC_020513_DIN_
  6
Continuous
 62
     7
100
AcDbPolyline
 90
        2
 70
     0
 43
0.5
 10
201.5109295254549
 20
128.3394543473023
 10
201.5109295254649
 20
123.0221512252873
  0
LWPOLYLINE
  5
1B7
330
1F
100
AcDbEntity
  8
Sichtbare_Kanten_TC_020513_DIN_
  6
Continuous
 62
     7
100
AcDbPolyline
 90
        2
 70
     0
 43
0.5
 10
201.510929525457
 20
138.7560916498933
 10
202.9109295254609
 20
138.7560916498933
  0
LWPOLYLINE
  5
1B8
330
1F
100
AcDbEntity
  8
Sichtbare_Kanten_TC_020513_DIN_
  6
Continuous
 62
     7
100
AcDbPolyline
 90
        2
 70
     0
 43
0.5
 10
208.2275668280449
 20
125.5394543473023
 10
204.3109295254549
 20
125.5394543473023
  0
LWPOLYLINE
  5
1B9
330
1F
100
AcDbEntity
  8
Sichtbare_Kanten_TC_020513_DIN_
  6
Continuous
 62
     7
100
AcDbPolyline
 90
        2
 70
     0
 43
0.5
 10
208.2275668280449
 20
126.9394543473023
 10
204.3109295254549
 20
126.9394543473023
  0
LWPOLYLINE
  5
1BA
330
1F
100
AcDbEntity
  8
Sichtbare_Kanten_TC_020513_DIN_
  6
Continuous
 62
     7
100
AcDbPolyline
 90
        2
 70
     0
 43
0.5
 10
209.0191116529769
 20
126.9394543473023
 10
208.2275668280449
 20
126.9394543473023
  0
LWPOLYLINE
  5
1BB
330
1F
100
AcDbEntity
  8
Sichtbare_Kanten_TC_020513_DIN_
  6
Continuous
 62
     7
100
AcDbPolyline
 90
        2
 70
     0
 43
0.5
 10
209.0191116529769
 20
125.5394543473023
 10
208.2275668280449
 20
125.5394543473023
  0
LWPOLYLINE
  5
1BC
330
1F
100
AcDbEntity
  8
Sichtbare_Kanten_TC_020513_DIN_
  6
Continuous
 62
     7
100
AcDbPolyline
 90
        2
 70
     0
 43
0.5
 10
209.0191116529769
 20
126.9394543473023
 10
215.3514702524319
 20
126.9394543473023
  0
LWPOLYLINE
  5
1BD
330
1F
100
AcDbEntity
  8
Sichtbare_Kanten_TC_020513_DIN_
  6
Continuous
 62
     7
100
AcDbPolyline
 90
        2
 70
     0
 43
0.5
 10
209.0191116529769
 20
125.5394543473023
 10
215.3514702524319
 20
125.5394543473023
  0
LWPOLYLINE
  5
1BE
330
1F
100
AcDbEntity
  8
Sichtbare_Kanten_TC_020513_DIN_
  6
Continuous
 62
     7
100
AcDbPolyline
 90
        2
 70
     0
 43
0.5
 10
214.2275668280479
 20
124.6017994322943
 10
217.7275668280479
 20
124.6017994322943
  0
LWPOLYLINE
  5
1BF
330
1F
100
AcDbEntity
  8
Sichtbare_Kanten_TC_020513_DIN_
  6
Continuous
 62
     7
100
AcDbPolyline
 90
        2
 70
     0
 43
0.5
 10
218.2275668280479
 20
125.1017994322943
 10
218.2275668280479
 20
125.4394543473023
  0
LWPOLYLINE
  5
1C0
330
1F
100
AcDbEntity
  8
Sichtbare_Kanten_TC_020513_DIN_
  6
Continuous
 62
     7
100
AcDbPolyline
 90
        2
 70
     0
 43
0.5
 10
214.2275668280479
 20
125.4394543473023
 10
214.2275668280479
 20
124.6017994322943
  0
LWPOLYLINE
  5
1C1
330
1F
100
AcDbEntity
  8
Sichtbare_Kanten_TC_020513_DIN_
  6
Continuous
 62
     7
100
AcDbPolyline
 90
        2
 70
     0
 43
0.5
 10
247.7942922228639
 20
125.5394543473023
 10
251.710929525455
 20
125.5394543473023
  0
LWPOLYLINE
  5
1C2
330
1F
100
AcDbEntity
  8
Sichtbare_Kanten_TC_020513_DIN_
  6
Continuous
 62
     7
100
AcDbPolyline
 90
        2
 70
     0
 43
0.5
 10
247.0027473979319
 20
125.5394543473023
 10
247.7942922228639
 20
125.5394543473023
  0
LWPOLYLINE
  5
1C3
330
1F
100
AcDbEntity
  8
Sichtbare_Kanten_TC_020513_DIN_
  6
Continuous
 62
     7
100
AcDbPolyline
 90
        2
 70
     0
 43
0.5
 10
247.0027473979319
 20
125.5394543473023
 10
240.670388798475
 20
125.5394543473023
  0
LWPOLYLINE
  5
1C4
330
1F
100
AcDbEntity
  8
Sichtbare_Kanten_TC_020513_DIN_
  6
Continuous
 62
     7
100
AcDbPolyline
 90
        2
 70
     0
 43
0.5
 10
240.670388798475
 20
125.5394543473023
 10
215.3514702524319
 20
125.5394543473023
  0
LWPOLYLINE
  5
1C5
330
1F
100
AcDbEntity
  8
Sichtbare_Kanten_TC_020513_DIN_
  6
Continuous
 62
     7
100
AcDbPolyline
 90
        2
 70
     0
 43
0.5
 10
241.7942922228659
 20
124.6017994322943
 10
238.2942922228659
 20
124.6017994322943
  0
LWPOLYLINE
  5
1C6
330
1F
100
AcDbEntity
  8
Sichtbare_Kanten_TC_020513_DIN_
  6
Continuous
 62
     7
100
AcDbPolyline
 90
        2
 70
     0
 43
0.5
 10
237.7942922228659
 20
125.1017994322943
 10
237.7942922228659
 20
125.4394543473023
  0
LWPOLYLINE
  5
1C7
330
1F
100
AcDbEntity
  8
Sichtbare_Kanten_TC_020513_DIN_
  6
Continuous
 62
     7
100
AcDbPolyline
 90
        2
 70
     0
 43
0.5
 10
241.7942922228659
 20
125.4394543473023
 10
241.7942922228659
 20
124.6017994322943
  0
LWPOLYLINE
  5
1C8
330
1F
100
AcDbEntity
  8
Sichtbare_Kanten_TC_020513_DIN_
  6
Continuous
 62
     7
100
AcDbPolyline
 90
        2
 70
     0
 43
0.5
 10
240.670388798475
 20
126.9394543473023
 10
215.3514702524319
 20
126.9394543473023
  0
LWPOLYLINE
  5
1C9
330
1F
100
AcDbEntity
  8
Sichtbare_Kanten_TC_020513_DIN_
  6
Continuous
 62
     7
100
AcDbPolyline
 90
        2
 70
     0
 43
0.5
 10
247.0027473979319
 20
126.9394543473023
 10
240.670388798475
 20
126.9394543473023
  0
LWPOLYLINE
  5
1CA
330
1F
100
AcDbEntity
  8
Sichtbare_Kanten_TC_020513_DIN_
  6
Continuous
 62
     7
100
AcDbPolyline
 90
        2
 70
     0
 43
0.5
 10
247.0027473979319
 20
126.9394543473023
 10
247.7942922228639
 20
126.9394543473023
  0
LWPOLYLINE
  5
1CB
330
1F
100
AcDbEntity
  8
Sichtbare_Kanten_TC_020513_DIN_
  6
Continuous
 62
     7
100
AcDbPolyline
 90
        2
 70
     0
 43
0.5
 10
247.7942922228639
 20
126.9394543473023
 10
251.710929525455
 20
126.9394543473023
  0
LWPOLYLINE
  5
1CC
330
1F
100
AcDbEntity
  8
Sichtbare_Kanten_TC_020513_DIN_
  6
Continuous
 62
     7
100
AcDbPolyline
 90
        2
 70
     0
 43
0.5
 10
253.1109295254549
 20
128.3394543473023
 10
253.1109295254549
 20
130.7560916498933
  0
LWPOLYLINE
  5
1CD
330
1F
100
AcDbEntity
  8
Sichtbare_Kanten_TC_020513_DIN_
  6
Continuous
 62
     7
100
AcDbPolyline
 90
        2
 70
     0
 43
0.5
 10
253.110929525457
 20
138.7560916498933
 10
253.1109295254549
 20
130.7560916498933
  0
LWPOLYLINE
  5
1CE
330
1F
100
AcDbEntity
  8
Sichtbare_Kanten_TC_020513_DIN_
  6
Continuous
 62
     7
100
AcDbPolyline
 90
        2
 70
     0
 43
0.5
 10
253.110929525457
 20
138.7560916498933
 10
253.110929525461
 20
138.9345038998003
  0
LWPOLYLINE
  5
1CF
330
1F
100
AcDbEntity
  8
Sichtbare_Kanten_TC_020513_DIN_
  6
Continuous
 62
     7
100
AcDbPolyline
 90
        2
 70
     0
 43
0.5
 10
253.1109295254629
 20
144.0480673634723
 10
253.110929525461
 20
138.9345038998003
  0
LWPOLYLINE
  5
1D0
330
1F
100
AcDbEntity
  8
Sichtbare_Kanten_TC_020513_DIN_
  6
Continuous
 62
     7
100
AcDbPolyline
 90
        2
 70
     0
 43
0.5
 10
253.1109295254639
 20
144.7560916498933
 10
253.1109295254629
 20
144.0480673634723
  0
LWPOLYLINE
  5
1D1
330
1F
100
AcDbEntity
  8
Sichtbare_Kanten_TC_020513_DIN_
  6
Continuous
 62
     7
100
AcDbPolyline
 90
        2
 70
     0
 43
0.5
 10
253.110929525462
 20
125.9145832167053
 10
253.1109295254649
 20
123.0221512252873
  0
LWPOLYLINE
  5
1D2
330
1F
100
AcDbEntity
  8
Sichtbare_Kanten_TC_020513_DIN_
  6
Continuous
 62
     7
100
AcDbPolyline
 90
        2
 70
     0
 43
0.5
 10
254.5109295254609
 20
128.3394543473023
 10
254.5109295254649
 20
123.0221512252873
  0
LWPOLYLINE
  5
1D3
330
1F
100
AcDbEntity
  8
Sichtbare_Kanten_TC_020513_DIN_
  6
Continuous
 62
     7
100
AcDbPolyline
 90
        2
 70
     0
 43
0.5
 10
254.5109295254639
 20
144.7560916498933
 10
254.510929525463
 20
144.0480673634723
  0
LWPOLYLINE
  5
1D4
330
1F
100
AcDbEntity
  8
Sichtbare_Kanten_TC_020513_DIN_
  6
Continuous
 62
     7
100
AcDbPolyline
 90
        2
 70
     0
 43
0.5
 10
254.510929525463
 20
144.0480673634723
 10
254.5109295254609
 20
138.9345038998003
  0
LWPOLYLINE
  5
1D5
330
1F
100
AcDbEntity
  8
Sichtbare_Kanten_TC_020513_DIN_
  6
Continuous
 62
     7
100
AcDbPolyline
 90
        2
 70
     0
 43
0.5
 10
254.5109295254609
 20
138.7560916498933
 10
254.5109295254609
 20
138.9345038998003
  0
LWPOLYLINE
  5
1D6
330
1F
100
AcDbEntity
  8
Sichtbare_Kanten_TC_020513_DIN_
  6
Continuous
 62
     7
100
AcDbPolyline
 90
        2
 70
     0
 43
0.5
 10
254.5109295254609
 20
138.7560916498933
 10
254.5109295254549
 20
130.7560916498933
  0
LWPOLYLINE
  5
1D7
330
1F
100
AcDbEntity
  8
Sichtbare_Kanten_TC_020513_DIN_
  6
Continuous
 62
     7
100
AcDbPolyline
 90
        2
 70
     0
 43
0.5
 10
254.5109295254609
 20
128.3394543473023
 10
254.5109295254549
 20
130.7560916498933
  0
LWPOLYLINE
  5
1D8
330
1F
100
AcDbEntity
  8
Sichtbare_Kanten_TC_020513_DIN_
  6
Continuous
 62
     7
100
AcDbPolyline
 90
        2
 70
     0
 43
0.5
 10
254.5109295254609
 20
138.7560916498933
 10
253.110929525457
 20
138.7560916498933
  0
LWPOLYLINE
  5
1D9
330
1F
100
AcDbEntity
  8
Sichtbare_Kanten_TC_020513_DIN_
  6
Continuous
 62
     7
100
AcDbPolyline
 90
        2
 70
     0
 43
0.5
 10
250.410929525464
 20
127.6184367348853
 10
250.410929525464
 20
127.7560916498933
  0
LWPOLYLINE
  5
1DA
330
1F
100
AcDbEntity
  8
Sichtbare_Kanten_TC_020513_DIN_
  6
Continuous
 62
     7
100
AcDbPolyline
 90
        2
 70
     0
 43
0.5
 10
250.4109295254609
 20
135.9716899651643
 10
250.410929525464
 20
127.7560916498933
  0
LWPOLYLINE
  5
1DB
330
1F
100
AcDbEntity
  8
Sichtbare_Kanten_TC_020513_DIN_
  6
Continuous
 62
     7
100
AcDbPolyline
 90
        2
 70
     0
 43
0.5
 10
250.4109295254609
 20
135.9716899651643
 10
250.4109295254609
 20
140.7996695212663
  0
LWPOLYLINE
  5
1DC
330
1F
100
AcDbEntity
  8
Sichtbare_Kanten_TC_020513_DIN_
  6
Continuous
 62
     7
100
AcDbPolyline
 90
        2
 70
     0
 43
0.5
 10
250.4109295254609
 20
140.7996695212663
 10
250.4109295254609
 20
141.1482414129853
  0
LWPOLYLINE
  5
1DD
330
1F
100
AcDbEntity
  8
Sichtbare_Kanten_TC_020513_DIN_
  6
Continuous
 62
     7
100
AcDbPolyline
 90
        2
 70
     0
 43
0.5
 10
250.4109295254609
 20
141.1482414129853
 10
250.4109295254599
 20
145.1170769848883
  0
LWPOLYLINE
  5
1DE
330
1F
100
AcDbEntity
  8
Sichtbare_Kanten_TC_020513_DIN_
  6
Continuous
 62
     7
100
AcDbPolyline
 90
        2
 70
     0
 43
0.5
 10
250.4109295254569
 20
155.5523332340843
 10
250.410929525458
 20
157.5995529186833
  0
LWPOLYLINE
  5
1DF
330
1F
100
AcDbEntity
  8
Sichtbare_Kanten_TC_020513_DIN_
  6
Continuous
 62
     7
100
AcDbPolyline
 90
        2
 70
     0
 43
0.5
 10
250.410929525463
 20
162.7560916498933
 10
250.410929525458
 20
157.5995529186833
  0
LWPOLYLINE
  5
1E0
330
1F
100
AcDbEntity
  8
Sichtbare_Kanten_TC_020513_DIN_
  6
Continuous
 62
     7
100
AcDbPolyline
 90
        2
 70
     0
 43
0.5
 10
251.8109295254579
 20
157.5995529186833
 10
251.8109295254569
 20
155.5523332340843
  0
LWPOLYLINE
  5
1E1
330
1F
100
AcDbEntity
  8
Sichtbare_Kanten_TC_020513_DIN_
  6
Continuous
 62
     7
100
AcDbPolyline
 90
        2
 70
     0
 43
0.5
 10
251.8109295254579
 20
157.5995529186833
 10
251.8109295254629
 20
162.7560916498933
  0
LWPOLYLINE
  5
1E2
330
1F
100
AcDbEntity
  8
Sichtbare_Kanten_TC_020513_DIN_
  6
Continuous
 62
     7
100
AcDbPolyline
 90
        2
 70
     0
 43
0.5
 10
251.81092952546
 20
145.1170769848883
 10
251.8109295254609
 20
141.1482414129853
  0
LWPOLYLINE
  5
1E3
330
1F
100
AcDbEntity
  8
Sichtbare_Kanten_TC_020513_DIN_
  6
Continuous
 62
     7
100
AcDbPolyline
 90
        2
 70
     0
 43
0.5
 10
251.8109295254609
 20
141.1482414129853
 10
251.8109295254609
 20
140.7996695212663
  0
LWPOLYLINE
  5
1E4
330
1F
100
AcDbEntity
  8
Sichtbare_Kanten_TC_020513_DIN_
  6
Continuous
 62
     7
100
AcDbPolyline
 90
        2
 70
     0
 43
0.5
 10
251.8109295254609
 20
140.7996695212663
 10
251.8109295254609
 20
135.9716899651643
  0
LWPOLYLINE
  5
1E5
330
1F
100
AcDbEntity
  8
Sichtbare_Kanten_TC_020513_DIN_
  6
Continuous
 62
     7
100
AcDbPolyline
 90
        2
 70
     0
 43
0.5
 10
251.810929525464
 20
127.7560916498933
 10
251.8109295254609
 20
135.9716899651643
  0
LWPOLYLINE
  5
1E6
330
1F
100
AcDbEntity
  8
Sichtbare_Kanten_TC_020513_DIN_
  6
Continuous
 62
     7
100
AcDbPolyline
 90
        2
 70
     0
 43
0.5
 10
251.810929525464
 20
127.7560916498933
 10
251.810929525465
 20
127.6184367348853
  0
LWPOLYLINE
  5
1E7
330
1F
100
AcDbEntity
  8
Sichtbare_Kanten_TC_020513_DIN_
  6
Continuous
 62
     7
100
AcDbPolyline
 90
        2
 70
     0
 43
0.5
 10
251.810929525464
 20
127.7560916498933
 10
250.410929525464
 20
127.7560916498933
  0
LWPOLYLINE
  5
1E8
330
1F
100
AcDbEntity
  8
Sichtbare_Kanten_TC_020513_DIN_
  6
Continuous
 62
     7
100
AcDbPolyline
 90
        2
 70
     0
 43
0.5
 10
251.8109295254629
 20
162.7560916498933
 10
250.410929525463
 20
162.7560916498933
  0
LWPOLYLINE
  5
1E9
330
1F
100
AcDbEntity
  8
Sichtbare_Kanten_TC_020513_DIN_
  6
Continuous
 62
     7
100
AcDbPolyline
 90
        2
 70
     0
 43
0.5
 10
247.4334776441999
 20
153.1170769848883
 10
244.5442922228649
 20
153.1170769848883
  0
LWPOLYLINE
  5
1EA
330
1F
100
AcDbEntity
  8
Sichtbare_Kanten_TC_020513_DIN_
  6
Continuous
 62
     7
100
AcDbPolyline
 90
        2
 70
     0
 43
0.5
 10
243.934412301035
 20
143.5568999563903
 10
244.302810766293
 20
144.9317817461633
  0
LWPOLYLINE
  5
1EB
330
1F
100
AcDbEntity
  8
Sichtbare_Kanten_TC_020513_DIN_
  6
Continuous
 62
     7
100
AcDbPolyline
 90
        2
 70
     0
 43
0.5
 10
244.5442922228649
 20
145.1170769848883
 10
249.0109295254559
 20
145.1170769848883
  0
LWPOLYLINE
  5
1EC
330
1F
100
AcDbEntity
  8
Sichtbare_Kanten_TC_020513_DIN_
  6
Continuous
 62
     7
100
AcDbPolyline
 90
        2
 70
     0
 43
0.5
 10
249.0109295254559
 20
154.4412871046583
 10
248.1995220873189
 20
153.4742893752013
  0
LWPOLYLINE
  5
1ED
330
1F
100
AcDbEntity
  8
Sichtbare_Kanten_TC_020513_DIN_
  6
Continuous
 62
     7
100
AcDbPolyline
 90
        2
 70
     0
 43
0.5
 10
241.1110074932039
 20
156.3337142874783
 10
239.179155840625
 20
156.3337142874783
  0
LWPOLYLINE
  5
1EE
330
1F
100
AcDbEntity
  8
Sichtbare_Kanten_TC_020513_DIN_
  6
Continuous
 62
     7
100
AcDbPolyline
 90
        2
 70
     0
 43
0.5
 10
239.179155840625
 20
154.9337142874783
 10
241.1110074932039
 20
154.9337142874783
  0
LWPOLYLINE
  5
1EF
330
1F
100
AcDbEntity
  8
Sichtbare_Kanten_TC_020513_DIN_
  6
Continuous
 62
     7
100
AcDbPolyline
 90
        2
 70
     0
 43
0.5
 10
241.1110074932039
 20
156.3337142874783
 10
242.4331425999369
 20
156.3337142874783
  0
LWPOLYLINE
  5
1F0
330
1F
100
AcDbEntity
  8
Sichtbare_Kanten_TC_020513_DIN_
  6
Continuous
 62
     7
100
AcDbPolyline
 90
        2
 70
     0
 43
0.5
 10
242.4331425999369
 20
154.9337142874783
 10
241.1110074932039
 20
154.9337142874783
  0
LWPOLYLINE
  5
1F1
330
1F
100
AcDbEntity
  8
Sichtbare_Kanten_TC_020513_DIN_
  6
Continuous
 62
     7
100
AcDbPolyline
 90
        2
 70
     0
 43
0.5
 10
251.910929525464
 20
127.5184367348853
 10
252.84491809688
 20
127.5184367348853
  0
LWPOLYLINE
  5
1F2
330
1F
100
AcDbEntity
  8
Sichtbare_Kanten_TC_020513_DIN_
  6
Continuous
 62
     7
100
AcDbPolyline
 90
        2
 70
     0
 43
0.5
 10
254.5109295254649
 20
126.1184367348853
 10
254.8485844404719
 20
126.1184367348853
  0
LWPOLYLINE
  5
1F3
330
1F
100
AcDbEntity
  8
Sichtbare_Kanten_TC_020513_DIN_
  6
Continuous
 62
     7
100
AcDbPolyline
 90
        2
 70
     0
 43
0.5
 10
254.8485844404719
 20
127.5184367348853
 10
254.8485844404719
 20
126.1184367348853
  0
LWPOLYLINE
  5
1F4
330
1F
100
AcDbEntity
  8
Sichtbare_Kanten_TC_020513_DIN_
  6
Continuous
 62
     7
100
AcDbPolyline
 90
        2
 70
     0
 43
0.5
 10
254.8485844404719
 20
127.5184367348853
 10
254.5109295254649
 20
127.5184367348853
  0
LWPOLYLINE
  5
1F5
330
1F
100
AcDbEntity
  8
Sichtbare_Kanten_TC_020513_DIN_
  6
Continuous
 62
     7
100
AcDbPolyline
 90
        2
 70
     0
 43
0.5
 10
242.070166228178
 20
137.4568632197043
 10
243.6987118809809
 20
142.9652343899533
  0
LWPOLYLINE
  5
1F6
330
1F
100
AcDbEntity
  8
Sichtbare_Kanten_TC_020513_DIN_
  6
Continuous
 62
     7
100
AcDbPolyline
 90
        2
 70
     0
 43
0.5
 10
243.6987118809819
 20
142.3735688235163
 10
242.0701662281789
 20
136.8651976532673
  0
LWPOLYLINE
  5
1F7
330
1F
100
AcDbEntity
  8
Sichtbare_Kanten_TC_020513_DIN_
  6
Continuous
 62
     7
100
AcDbPolyline
 90
        2
 70
     0
 43
0.5
 10
239.179155840625
 20
156.3337142874783
 10
216.8427032102819
 20
156.3337142874783
  0
LWPOLYLINE
  5
1F8
330
1F
100
AcDbEntity
  8
Sichtbare_Kanten_TC_020513_DIN_
  6
Continuous
 62
     7
100
AcDbPolyline
 90
        2
 70
     0
 43
0.5
 10
216.8427032102819
 20
154.9337142874783
 10
239.179155840625
 20
154.9337142874783
  0
LWPOLYLINE
  5
1F9
330
1F
100
AcDbEntity
  8
Sichtbare_Kanten_TC_020513_DIN_
  6
Continuous
 62
     7
100
AcDbPolyline
 90
        2
 70
     0
 43
0.5
 10
214.910851557704
 20
156.3337142874783
 10
213.5887164509729
 20
156.3337142874783
  0
LWPOLYLINE
  5
1FA
330
1F
100
AcDbEntity
  8
Sichtbare_Kanten_TC_020513_DIN_
  6
Continuous
 62
     7
100
AcDbPolyline
 90
        2
 70
     0
 43
0.5
 10
214.910851557704
 20
156.3337142874783
 10
216.8427032102819
 20
156.3337142874783
  0
LWPOLYLINE
  5
1FB
330
1F
100
AcDbEntity
  8
Sichtbare_Kanten_TC_020513_DIN_
  6
Continuous
 62
     7
100
AcDbPolyline
 90
        2
 70
     0
 43
0.5
 10
240.1383145755999
 20
135.5217215112133
 10
215.8835444753099
 20
135.5217215112133
  0
LWPOLYLINE
  5
1FC
330
1F
100
AcDbEntity
  8
Sichtbare_Kanten_TC_020513_DIN_
  6
Continuous
 62
     7
100
AcDbPolyline
 90
        2
 70
     0
 43
0.5
 10
212.323147169931
 20
142.3735688235163
 10
213.951692822732
 20
136.8651976532673
  0
LWPOLYLINE
  5
1FD
330
1F
100
AcDbEntity
  8
Sichtbare_Kanten_TC_020513_DIN_
  6
Continuous
 62
     7
100
AcDbPolyline
 90
        2
 70
     0
 43
0.5
 10
212.0874467498769
 20
143.5568999563903
 10
211.7190482846189
 20
144.9317817461633
  0
LWPOLYLINE
  5
1FE
330
1F
100
AcDbEntity
  8
Sichtbare_Kanten_TC_020513_DIN_
  6
Continuous
 62
     7
100
AcDbPolyline
 90
        2
 70
     0
 43
0.5
 10
208.5883814067109
 20
153.1170769848883
 10
211.477566828046
 20
153.1170769848883
  0
LWPOLYLINE
  5
1FF
330
1F
100
AcDbEntity
  8
Sichtbare_Kanten_TC_020513_DIN_
  6
Continuous
 62
     7
100
AcDbPolyline
 90
        2
 70
     0
 43
0.5
 10
207.0109295254559
 20
154.4412871046583
 10
207.8223369635919
 20
153.4742893752013
  0
LWPOLYLINE
  5
200
330
1F
100
AcDbEntity
  8
Sichtbare_Kanten_TC_020513_DIN_
  6
Continuous
 62
     7
100
AcDbPolyline
 90
        2
 70
     0
 43
0.5
 10
211.477566828046
 20
145.1170769848883
 10
207.0109295254559
 20
145.1170769848883
  0
LWPOLYLINE
  5
201
330
1F
100
AcDbEntity
  8
Sichtbare_Kanten_TC_020513_DIN_
  6
Continuous
 62
     7
100
AcDbPolyline
 90
        2
 70
     0
 43
0.5
 10
205.6109295254629
 20
162.7560916498933
 10
205.6109295254569
 20
157.5995529186833
  0
LWPOLYLINE
  5
202
330
1F
100
AcDbEntity
  8
Sichtbare_Kanten_TC_020513_DIN_
  6
Continuous
 62
     7
100
AcDbPolyline
 90
        2
 70
     0
 43
0.5
 10
205.610929525456
 20
155.5523332340843
 10
205.6109295254569
 20
157.5995529186833
  0
LWPOLYLINE
  5
203
330
1F
100
AcDbEntity
  8
Sichtbare_Kanten_TC_020513_DIN_
  6
Continuous
 62
     7
100
AcDbPolyline
 90
        2
 70
     0
 43
0.5
 10
205.610929525461
 20
141.1482414129853
 10
205.6109295254599
 20
145.1170769848883
  0
LWPOLYLINE
  5
204
330
1F
100
AcDbEntity
  8
Sichtbare_Kanten_TC_020513_DIN_
  6
Continuous
 62
     7
100
AcDbPolyline
 90
        2
 70
     0
 43
0.5
 10
205.610929525461
 20
140.7996695212663
 10
205.610929525461
 20
141.1482414129853
  0
LWPOLYLINE
  5
205
330
1F
100
AcDbEntity
  8
Sichtbare_Kanten_TC_020513_DIN_
  6
Continuous
 62
     7
100
AcDbPolyline
 90
        2
 70
     0
 43
0.5
 10
205.610929525461
 20
135.9716899651643
 10
205.610929525461
 20
140.7996695212663
  0
LWPOLYLINE
  5
206
330
1F
100
AcDbEntity
  8
Sichtbare_Kanten_TC_020513_DIN_
  6
Continuous
 62
     7
100
AcDbPolyline
 90
        2
 70
     0
 43
0.5
 10
205.610929525461
 20
135.9716899651643
 10
205.6109295254639
 20
127.7560916498933
  0
LWPOLYLINE
  5
207
330
1F
100
AcDbEntity
  8
Sichtbare_Kanten_TC_020513_DIN_
  6
Continuous
 62
     7
100
AcDbPolyline
 90
        2
 70
     0
 43
0.5
 10
205.6109295254639
 20
127.6184367348853
 10
205.6109295254639
 20
127.7560916498933
  0
LWPOLYLINE
  5
208
330
1F
100
AcDbEntity
  8
Sichtbare_Kanten_TC_020513_DIN_
  6
Continuous
 62
     7
100
AcDbPolyline
 90
        2
 70
     0
 43
0.5
 10
204.2109295254639
 20
127.7560916498933
 10
204.210929525465
 20
127.6184367348853
  0
LWPOLYLINE
  5
209
330
1F
100
AcDbEntity
  8
Sichtbare_Kanten_TC_020513_DIN_
  6
Continuous
 62
     7
100
AcDbPolyline
 90
        2
 70
     0
 43
0.5
 10
204.2109295254639
 20
127.7560916498933
 10
204.2109295254609
 20
135.9716899651643
  0
LWPOLYLINE
  5
20A
330
1F
100
AcDbEntity
  8
Sichtbare_Kanten_TC_020513_DIN_
  6
Continuous
 62
     7
100
AcDbPolyline
 90
        2
 70
     0
 43
0.5
 10
204.2109295254609
 20
140.7996695212663
 10
204.2109295254609
 20
135.9716899651643
  0
LWPOLYLINE
  5
20B
330
1F
100
AcDbEntity
  8
Sichtbare_Kanten_TC_020513_DIN_
  6
Continuous
 62
     7
100
AcDbPolyline
 90
        2
 70
     0
 43
0.5
 10
204.2109295254609
 20
141.1482414129853
 10
204.2109295254609
 20
140.7996695212663
  0
LWPOLYLINE
  5
20C
330
1F
100
AcDbEntity
  8
Sichtbare_Kanten_TC_020513_DIN_
  6
Continuous
 62
     7
100
AcDbPolyline
 90
        2
 70
     0
 43
0.5
 10
204.21092952546
 20
145.1170769848883
 10
204.2109295254609
 20
141.1482414129853
  0
LWPOLYLINE
  5
20D
330
1F
100
AcDbEntity
  8
Sichtbare_Kanten_TC_020513_DIN_
  6
Continuous
 62
     7
100
AcDbPolyline
 90
        2
 70
     0
 43
0.5
 10
204.2109295254569
 20
157.5995529186833
 10
204.2109295254559
 20
155.5523332340843
  0
LWPOLYLINE
  5
20E
330
1F
100
AcDbEntity
  8
Sichtbare_Kanten_TC_020513_DIN_
  6
Continuous
 62
     7
100
AcDbPolyline
 90
        2
 70
     0
 43
0.5
 10
204.2109295254569
 20
157.5995529186833
 10
204.2109295254629
 20
162.7560916498933
  0
LWPOLYLINE
  5
20F
330
1F
100
AcDbEntity
  8
Sichtbare_Kanten_TC_020513_DIN_
  6
Continuous
 62
     7
100
AcDbPolyline
 90
        2
 70
     0
 43
0.5
 10
216.8427032102819
 20
154.9337142874783
 10
214.910851557704
 20
154.9337142874783
  0
LWPOLYLINE
  5
210
330
1F
100
AcDbEntity
  8
Sichtbare_Kanten_TC_020513_DIN_
  6
Continuous
 62
     7
100
AcDbPolyline
 90
        2
 70
     0
 43
0.5
 10
213.5887164509729
 20
154.9337142874783
 10
214.910851557704
 20
154.9337142874783
  0
LWPOLYLINE
  5
211
330
1F
100
AcDbEntity
  8
Sichtbare_Kanten_TC_020513_DIN_
  6
Continuous
 62
     7
100
AcDbPolyline
 90
        2
 70
     0
 43
0.5
 10
204.2109295254639
 20
127.7560916498933
 10
205.6109295254639
 20
127.7560916498933
  0
LWPOLYLINE
  5
212
330
1F
100
AcDbEntity
  8
Sichtbare_Kanten_TC_020513_DIN_
  6
Continuous
 62
     7
100
AcDbPolyline
 90
        2
 70
     0
 43
0.5
 10
204.2109295254629
 20
162.7560916498933
 10
205.6109295254629
 20
162.7560916498933
  0
LWPOLYLINE
  5
213
330
1F
100
AcDbEntity
  8
Sichtbare_Kanten_TC_020513_DIN_
  6
Continuous
 62
     7
100
AcDbPolyline
 90
        2
 70
     0
 43
0.5
 10
201.5109295254649
 20
126.1184367348853
 10
201.1732746104569
 20
126.1184367348853
  0
LWPOLYLINE
  5
214
330
1F
100
AcDbEntity
  8
Sichtbare_Kanten_TC_020513_DIN_
  6
Continuous
 62
     7
100
AcDbPolyline
 90
        2
 70
     0
 43
0.5
 10
201.1732746104569
 20
127.5184367348853
 10
201.5109295254649
 20
127.5184367348853
  0
LWPOLYLINE
  5
215
330
1F
100
AcDbEntity
  8
Sichtbare_Kanten_TC_020513_DIN_
  6
Continuous
 62
     7
100
AcDbPolyline
 90
        2
 70
     0
 43
0.5
 10
201.1732746104569
 20
127.5184367348853
 10
201.1732746104569
 20
126.1184367348853
  0
LWPOLYLINE
  5
216
330
1F
100
AcDbEntity
  8
Sichtbare_Kanten_TC_020513_DIN_
  6
Continuous
 62
     7
100
AcDbPolyline
 90
        2
 70
     0
 43
0.5
 10
204.1109295254649
 20
127.5184367348853
 10
203.1769409540489
 20
127.5184367348853
  0
LWPOLYLINE
  5
217
330
1F
100
AcDbEntity
  8
Sichtbare_Kanten_TC_020513_DIN_
  6
Continuous
 62
     7
100
AcDbPolyline
 90
        2
 70
     0
 43
0.5
 10
213.9516928227309
 20
137.4568632197043
 10
212.3231471699299
 20
142.9652343899533
  0
LWPOLYLINE
  5
218
330
1F
100
AcDbEntity
  8
Sichtbare_Kanten_TC_020513_DIN_
  6
Continuous
 62
     7
100
AcDbPolyline
 90
        2
 70
     0
 43
0.5
 10
215.8835444753089
 20
136.1133870776513
 10
240.1383145755999
 20
136.1133870776513
  0
LWPOLYLINE
  5
219
330
1F
100
AcDbEntity
  8
Sichtbare_Kanten_TC_020513_DIN_
  6
Continuous
 62
     7
100
AcDbPolyline
 90
        2
 70
     0
 43
0.5
 10
201.5109295254649
 20
123.0221512252873
 10
202.9109295254649
 20
123.0221512252873
  0
LWPOLYLINE
  5
21A
330
1F
100
AcDbEntity
  8
Sichtbare_Kanten_TC_020513_DIN_
  6
Continuous
 62
     7
100
AcDbPolyline
 90
        2
 70
     0
 43
0.5
 10
201.5109295254639
 20
144.7560916498933
 10
202.9109295254639
 20
144.7560916498933
  0
LWPOLYLINE
  5
21B
330
1F
100
AcDbEntity
  8
Sichtbare_Kanten_TC_020513_DIN_
  6
Continuous
 62
     7
100
AcDbPolyline
 90
        2
 70
     0
 43
0.5
 10
253.1109295254649
 20
123.0221512252873
 10
254.5109295254649
 20
123.0221512252873
  0
LWPOLYLINE
  5
21C
330
1F
100
AcDbEntity
  8
Sichtbare_Kanten_TC_020513_DIN_
  6
Continuous
 62
     7
100
AcDbPolyline
 90
        2
 70
     0
 43
0.5
 10
253.1109295254639
 20
144.7560916498933
 10
254.5109295254639
 20
144.7560916498933
  0
LWPOLYLINE
  5
21D
330
1F
100
AcDbEntity
  8
Sichtbare_Kanten_TC_020513_DIN_
  6
Continuous
 62
     7
100
AcDbPolyline
 90
        2
 70
     0
 43
0.5
 10
243.6987118809809
 20
142.7048999123993
 10
243.6987118809809
 20
142.9652343899533
  0
LWPOLYLINE
  5
21E
330
1F
100
AcDbEntity
  8
Sichtbare_Kanten_TC_020513_DIN_
  6
Continuous
 62
     7
100
AcDbPolyline
 90
        2
 70
     0
 43
0.5
 10
243.6987118809819
 20
142.3735688235163
 10
243.6987118809809
 20
142.7048999123993
  0
LWPOLYLINE
  5
21F
330
1F
100
AcDbEntity
  8
Sichtbare_Kanten_TC_020513_DIN_
  6
Continuous
 62
     7
100
AcDbPolyline
 90
        2
 70
     0
 43
0.5
 10
249.6975287800639
 20
155.1170769289763
 10
250.3841266041609
 20
155.1170769289763
  0
LWPOLYLINE
  5
220
330
1F
100
AcDbEntity
  8
Sichtbare_Kanten_TC_020513_DIN_
  6
Continuous
 62
     7
100
AcDbPolyline
 90
        2
 70
     0
 43
0.5
 10
251.0269314382339
 20
155.5523332340843
 10
251.8109295254569
 20
155.5523332340843
  0
LWPOLYLINE
  5
221
330
1F
100
AcDbEntity
  8
Sichtbare_Kanten_TC_020513_DIN_
  6
Continuous
 62
     7
100
AcDbPolyline
 90
        2
 70
     0
 43
0.5
 10
250.4109295254569
 20
155.5523332340843
 10
251.0269314382339
 20
155.5523332340843
  0
LWPOLYLINE
  5
222
330
1F
100
AcDbEntity
  8
Sichtbare_Kanten_TC_020513_DIN_
  6
Continuous
 62
     7
100
AcDbPolyline
 90
        2
 70
     0
 43
0.5
 10
250.3841276823749
 20
155.1170769848883
 10
251.3799900537999
 20
155.1170769848883
  0
LWPOLYLINE
  5
223
330
1F
100
AcDbEntity
  8
Sichtbare_Kanten_TC_020513_DIN_
  6
Continuous
 62
     7
100
AcDbPolyline
 90
        2
 70
     0
 43
0.5
 10
251.81092952546
 20
145.1170769848883
 10
249.0109295254559
 20
145.1170769848883
  0
LWPOLYLINE
  5
224
330
1F
100
AcDbEntity
  8
Sichtbare_Kanten_TC_020513_DIN_
  6
Continuous
 62
     7
100
AcDbPolyline
 90
        2
 70
     0
 43
0.5
 10
251.8109295254569
 20
155.5523332340843
 10
251.81092952546
 20
145.1170769848883
  0
LWPOLYLINE
  5
225
330
1F
100
AcDbEntity
  8
Sichtbare_Kanten_TC_020513_DIN_
  6
Continuous
 62
     7
100
AcDbPolyline
 90
        2
 70
     0
 43
0.5
 10
242.4331425999369
 20
155.5497154177613
 10
242.4331425999369
 20
156.3337142874783
  0
LWPOLYLINE
  5
226
330
1F
100
AcDbEntity
  8
Sichtbare_Kanten_TC_020513_DIN_
  6
Continuous
 62
     7
100
AcDbPolyline
 90
        2
 70
     0
 43
0.5
 10
242.4331425999369
 20
154.9337142874783
 10
242.4331425999369
 20
155.5497154177613
  0
LWPOLYLINE
  5
227
330
1F
100
AcDbEntity
  8
Sichtbare_Kanten_TC_020513_DIN_
  6
Continuous
 62
     7
100
AcDbPolyline
 90
        2
 70
     0
 43
0.5
 10
213.5887164509729
 20
155.5497154177603
 10
213.5887164509729
 20
154.9337142874783
  0
LWPOLYLINE
  5
228
330
1F
100
AcDbEntity
  8
Sichtbare_Kanten_TC_020513_DIN_
  6
Continuous
 62
     7
100
AcDbPolyline
 90
        2
 70
     0
 43
0.5
 10
213.5887164509729
 20
156.3337142874783
 10
213.5887164509729
 20
155.5497154177603
  0
LWPOLYLINE
  5
229
330
1F
100
AcDbEntity
  8
Sichtbare_Kanten_TC_020513_DIN_
  6
Continuous
 62
     7
100
AcDbPolyline
 90
        2
 70
     0
 43
0.5
 10
212.3231471699299
 20
142.7048999123983
 10
212.323147169931
 20
142.3735688235163
  0
LWPOLYLINE
  5
22A
330
1F
100
AcDbEntity
  8
Sichtbare_Kanten_TC_020513_DIN_
  6
Continuous
 62
     7
100
AcDbPolyline
 90
        2
 70
     0
 43
0.5
 10
212.3231471699299
 20
142.9652343899533
 10
212.3231471699299
 20
142.7048999123983
  0
LWPOLYLINE
  5
22B
330
1F
100
AcDbEntity
  8
Sichtbare_Kanten_TC_020513_DIN_
  6
Continuous
 62
     7
100
AcDbPolyline
 90
        2
 70
     0
 43
0.5
 10
204.21092952546
 20
145.1170769848883
 10
204.2109295254559
 20
155.5523332340843
  0
LWPOLYLINE
  5
22C
330
1F
100
AcDbEntity
  8
Sichtbare_Kanten_TC_020513_DIN_
  6
Continuous
 62
     7
100
AcDbPolyline
 90
        2
 70
     0
 43
0.5
 10
204.9949276126789
 20
155.5523332340843
 10
205.610929525456
 20
155.5523332340843
  0
LWPOLYLINE
  5
22D
330
1F
100
AcDbEntity
  8
Sichtbare_Kanten_TC_020513_DIN_
  6
Continuous
 62
     7
100
AcDbPolyline
 90
        2
 70
     0
 43
0.5
 10
204.2109295254559
 20
155.5523332340843
 10
204.9949276126789
 20
155.5523332340843
  0
LWPOLYLINE
  5
22E
330
1F
100
AcDbEntity
  8
Sichtbare_Kanten_TC_020513_DIN_
  6
Continuous
 62
     7
100
AcDbPolyline
 90
        2
 70
     0
 43
0.5
 10
206.3243302708479
 20
155.1170769289763
 10
205.6377324467509
 20
155.1170769289763
  0
LWPOLYLINE
  5
22F
330
1F
100
AcDbEntity
  8
Sichtbare_Kanten_TC_020513_DIN_
  6
Continuous
 62
     7
100
AcDbPolyline
 90
        2
 70
     0
 43
0.5
 10
204.6418689971129
 20
155.1170769848883
 10
205.6377313685359
 20
155.1170769848883
  0
LWPOLYLINE
  5
230
330
1F
100
AcDbEntity
  8
Sichtbare_Kanten_TC_020513_DIN_
  6
Continuous
 62
     7
100
AcDbPolyline
 90
        2
 70
     0
 43
0.5
 10
207.0109295254559
 20
145.1170769848883
 10
204.21092952546
 20
145.1170769848883
  0
LWPOLYLINE
  5
231
330
1F
100
AcDbEntity
  8
Mittellinie_TC_020513_DIN_
  6
CHAIN
 62
     7
100
AcDbPolyline
 90
        2
 70
     0
 43
0.25
 10
33.37086417442954
 20
89.7560916498929
 10
51.37086417442954
 20
89.7560916498929
  0
LWPOLYLINE
  5
232
330
1F
100
AcDbEntity
  8
Mittellinie_TC_020513_DIN_
  6
CHAIN
 62
     7
100
AcDbPolyline
 90
        2
 70
     0
 43
0.25
 10
41.87086417442954
 20
65.2560916498929
 10
41.87086417442954
 20
74.2560916498929
  0
LWPOLYLINE
  5
233
330
1F
100
AcDbEntity
  8
Mittellinie_TC_020513_DIN_
  6
CHAIN
 62
     7
100
AcDbPolyline
 90
        2
 70
     0
 43
0.25
 10
146.8708641744299
 20
65.2560916498929
 10
146.8708641744299
 20
74.2560916498929
  0
LWPOLYLINE
  5
234
330
1F
100
AcDbEntity
  8
Mittellinie_TC_020513_DIN_
  6
CHAIN
 62
     7
100
AcDbPolyline
 90
        2
 70
     0
 43
0.25
 10
137.3708641744299
 20
89.7560916498929
 10
155.3708641744299
 20
89.7560916498929
  0
LWPOLYLINE
  5
235
330
1F
100
AcDbEntity
  8
Mittellinie_TC_020513_DIN_
  6
CHAIN
 62
     7
100
AcDbPolyline
 90
        2
 70
     0
 43
0.25
 10
94.37086417442954
 20
66.1217718721843
 10
94.37086417442954
 20
160.2569247259363
  0
LWPOLYLINE
  5
236
330
1F
100
AcDbEntity
  8
Mittellinie_TC_020513_DIN_
  6
CHAIN
 62
     7
100
AcDbPolyline
 90
        2
 70
     0
 43
0.25
 10
205.5109295254559
 20
65.2560916498929
 10
205.5109295254559
 20
74.2560916498929
  0
LWPOLYLINE
  5
237
330
1F
100
AcDbEntity
  8
Mittellinie_TC_020513_DIN_
  6
CHAIN
 62
     7
100
AcDbPolyline
 90
        2
 70
     0
 43
0.25
 10
250.5109295254559
 20
65.2560916498929
 10
250.5109295254559
 20
74.2560916498929
  0
LWPOLYLINE
  5
238
330
1F
100
AcDbEntity
  8
Mittellinie_TC_020513_DIN_
  6
CHAIN
 62
     7
100
AcDbPolyline
 90
        2
 70
     0
 43
0.25
 10
228.0109295254589
 20
65.9109952851282
 10
228.0109295254589
 20
153.3683552584743
  0
LWPOLYLINE
  5
239
330
1F
100
AcDbEntity
  8
Mittellinie_TC_020513_DIN_
  6
CHAIN
 62
     7
100
AcDbPolyline
 90
        2
 70
     0
 43
0.25
 10
198.4109295254639
 20
137.7560916498933
 10
204.8521863555889
 20
137.7560916498933
  0
LWPOLYLINE
  5
23A
330
1F
100
AcDbEntity
  8
Mittellinie_TC_020513_DIN_
  6
CHAIN
 62
     7
100
AcDbPolyline
 90
        2
 70
     0
 43
0.25
 10
251.289588882226
 20
137.7560916498933
 10
257.6109295254639
 20
137.7560916498933
  0
LWPOLYLINE
  5
23B
330
1F
100
AcDbEntity
  8
Mittelpunktmarkierung_TC_020513_DIN_
  6
CHAIN
 62
     7
100
AcDbPolyline
 90
        2
 70
     0
 43
0.25
 10
77.57086417442953
 20
137.7560916498933
 10
63.17086417442955
 20
137.7560916498933
  0
LWPOLYLINE
  5
23C
330
1F
100
AcDbEntity
  8
Mittelpunktmarkierung_TC_020513_DIN_
  6
CHAIN
 62
     7
100
AcDbPolyline
 90
        2
 70
     0
 43
0.25
 10
70.37086417442954
 20
144.9560916498933
 10
70.37086417442954
 20
130.5560916498933
  0
LWPOLYLINE
  5
23D
330
1F
100
AcDbEntity
  8
Mittelpunktmarkierung_TC_020513_DIN_
  6
CHAIN
 62
     7
100
AcDbPolyline
 90
        2
 70
     0
 43
0.25
 10
125.5708641744299
 20
137.7560916498933
 10
111.17086417443
 20
137.7560916498933
  0
LWPOLYLINE
  5
23E
330
1F
100
AcDbEntity
  8
Mittelpunktmarkierung_TC_020513_DIN_
  6
CHAIN
 62
     7
100
AcDbPolyline
 90
        2
 70
     0
 43
0.25
 10
118.3708641744299
 20
144.9560916498933
 10
118.3708641744299
 20
130.5560916498933
  0
LWPOLYLINE
  5
23F
330
1F
100
AcDbEntity
  8
Mittelpunktmarkierung_TC_020513_DIN_
  6
CHAIN
 62
     7
100
AcDbPolyline
 90
        2
 70
     0
 43
0.25
 10
119.6208641744299
 20
126.7560916498933
 10
111.1208641744299
 20
126.7560916498933
  0
LWPOLYLINE
  5
240
330
1F
100
AcDbEntity
  8
Mittelpunktmarkierung_TC_020513_DIN_
  6
CHAIN
 62
     7
100
AcDbPolyline
 90
        2
 70
     0
 43
0.25
 10
115.3708641744299
 20
131.0060916498933
 10
115.3708641744299
 20
122.5060916498933
  0
LWPOLYLINE
  5
241
330
1F
100
AcDbEntity
  8
Mittelpunktmarkierung_TC_020513_DIN_
  6
CHAIN
 62
     7
100
AcDbPolyline
 90
        2
 70
     0
 43
0.25
 10
77.62086417442954
 20
126.7560916498933
 10
69.12086417442954
 20
126.7560916498933
  0
LWPOLYLINE
  5
242
330
1F
100
AcDbEntity
  8
Mittelpunktmarkierung_TC_020513_DIN_
  6
CHAIN
 62
     7
100
AcDbPolyline
 90
        2
 70
     0
 43
0.25
 10
73.37086417442954
 20
131.0060916498933
 10
73.37086417442954
 20
122.5060916498933
  0
LWPOLYLINE
  5
243
330
1F
100
AcDbEntity
  8
Mittelpunktmarkierung_TC_020513_DIN_
  6
CHAIN
 62
     7
100
AcDbPolyline
 90
        2
 70
     0
 43
0.25
 10
243.510929525458
 20
89.7560916498929
 10
212.5109295254579
 20
89.7560916498929
  0
LWPOLYLINE
  5
244
330
1F
100
AcDbEntity
  8
Mittelpunktmarkierung_TC_020513_DIN_
  6
CHAIN
 62
     7
100
AcDbPolyline
 90
        2
 70
     0
 43
0.25
 10
228.010929525458
 20
105.2560916498933
 10
228.010929525458
 20
74.2560916498929
  0
LWPOLYLINE
  5
6C5
330
1F
100
AcDbEntity
  8
Skizziergeometrie_TC_020513_DIN_
  6
DASHED
 62
     7
100
AcDbPolyline
 90
        2
 70
     0
 43
0.35
 10
163.965172761819
 20
121.0006913381863
 42
0.02948067728667
 10
164.3048141461459
 20
126.7560916498933
 42
0.02948067728667
  0
LWPOLYLINE
  5
6C6
330
1F
100
AcDbEntity
  8
Sichtbare_Kanten_TC_020513_DIN_
  6
Continuous
 62
     7
100
AcDbPolyline
 90
        2
 70
     0
 43
0.5
 10
96.12086417442954
 20
101.1997582610293
 42
0.57717933062327
 10
96.49575312192202
 20
100.9831878318513
 42
0.57717933062327
  0
LWPOLYLINE
  5
6C7
330
1F
100
AcDbEntity
  8
Sichtbare_Kanten_TC_020513_DIN_
  6
Continuous
 62
     7
100
AcDbPolyline
 90
        2
 70
     0
 43
0.5
 10
97.49575312192202
 20
101.5598544985183
 42
0.99999999999891
 10
97.24597522693712
 20
101.9929953568733
 42
0.99999999999891
  0
LWPOLYLINE
  5
6C8
330
1F
100
AcDbEntity
  8
Sichtbare_Kanten_TC_020513_DIN_
  6
Continuous
 62
     7
100
AcDbPolyline
 90
        2
 70
     0
 43
0.5
 10
97.37086417442954
 20
102.5060916498933
 42
1.0
 10
97.37086417442954
 20
103.0060916498933
 42
1.0
  0
LWPOLYLINE
  5
6C9
330
1F
100
AcDbEntity
  8
Sichtbare_Kanten_TC_020513_DIN_
  6
Continuous
 62
     7
100
AcDbPolyline
 90
        2
 70
     0
 43
0.5
 10
97.24597522693706
 20
103.5191879429133
 42
1.00000000000001
 10
97.49575312192202
 20
103.9523288012693
 42
1.00000000000001
  0
LWPOLYLINE
  5
6CA
330
1F
100
AcDbEntity
  8
Sichtbare_Kanten_TC_020513_DIN_
  6
Continuous
 62
     7
100
AcDbPolyline
 90
        2
 70
     0
 43
0.5
 10
96.49575312192202
 20
104.5289954679353
 42
0.57717933062395
 10
96.12086417442954
 20
104.3124250387583
 42
0.57717933062395
  0
LWPOLYLINE
  5
6CB
330
1F
100
AcDbEntity
  8
Sichtbare_Kanten_TC_020513_DIN_
  6
Continuous
 62
     7
100
AcDbPolyline
 90
        2
 70
     0
 43
0.5
 10
91.12086417442954
 20
101.7660916498933
 42
1.0
 10
91.62086417442954
 20
101.7660916498933
 42
1.0
  0
LWPOLYLINE
  5
6CC
330
1F
100
AcDbEntity
  8
Sichtbare_Kanten_TC_020513_DIN_
  6
Continuous
 62
     7
100
AcDbPolyline
 90
        2
 70
     0
 43
0.5
 10
91.62086417442954
 20
103.7460916498933
 42
1.0
 10
91.12086417442954
 20
103.7460916498933
 42
1.0
  0
LWPOLYLINE
  5
6CD
330
1F
100
AcDbEntity
  8
Sichtbare_Kanten_TC_020513_DIN_
  6
Continuous
 62
     7
100
AcDbPolyline
 90
        2
 70
     0
 43
0.5
 10
92.12086417442954
 20
101.1997582610293
 42
0.26808661587628
 10
92.24597522693712
 20
100.9831878318513
 42
0.26808661587628
  0
LWPOLYLINE
  5
6CE
330
1F
100
AcDbEntity
  8
Sichtbare_Kanten_TC_020513_DIN_
  6
Continuous
 62
     7
100
AcDbPolyline
 90
        2
 70
     0
 43
0.5
 10
94.24597522693712
 20
99.82985449851829
 42
0.99999999999891
 10
94.49575312192202
 20
100.2629953568733
 42
0.99999999999891
  0
LWPOLYLINE
  5
6CF
330
1F
100
AcDbEntity
  8
Sichtbare_Kanten_TC_020513_DIN_
  6
Continuous
 62
     7
100
AcDbPolyline
 90
        2
 70
     0
 43
0.5
 10
92.62086417442954
 20
104.3124250387583
 42
1.0
 10
92.12086417442954
 20
104.3124250387583
 42
1.0
  0
LWPOLYLINE
  5
6D0
330
1F
100
AcDbEntity
  8
Sichtbare_Kanten_TC_020513_DIN_
  6
Continuous
 62
     7
100
AcDbPolyline
 90
        2
 70
     0
 43
0.5
 10
95.12086417442966
 20
100.6230915943623
 42
1.0
 10
95.62086417442954
 20
100.6230915943623
 42
1.0
  0
LWPOLYLINE
  5
6D1
330
1F
100
AcDbEntity
  8
Sichtbare_Kanten_TC_020513_DIN_
  6
Continuous
 62
     7
100
AcDbPolyline
 90
        2
 70
     0
 43
0.5
 10
95.62086417442954
 20
104.8890917054243
 42
0.721571048686
 10
95.17054418905447
 20
105.0386641074893
 42
0.721571048686
  0
LWPOLYLINE
  5
6D2
330
1F
100
AcDbEntity
  8
Sichtbare_Kanten_TC_020513_DIN_
  6
Continuous
 62
     7
100
AcDbPolyline
 90
        2
 70
     0
 43
0.5
 10
93.57118415980473
 20
105.0386641074893
 42
0.72157104868611
 10
93.12086417442954
 20
104.8890917054243
 42
0.72157104868611
  0
LWPOLYLINE
  5
6D3
330
1F
100
AcDbEntity
  8
Sichtbare_Kanten_TC_020513_DIN_
  6
Continuous
 62
     7
100
AcDbPolyline
 90
        2
 70
     0
 43
0.5
 10
93.12086417442954
 20
101.7660916498933
 42
1.0
 10
93.62086417442954
 20
101.7660916498933
 42
1.0
  0
LWPOLYLINE
  5
6D4
330
1F
100
AcDbEntity
  8
Sichtbare_Kanten_TC_020513_DIN_
  6
Continuous
 62
     7
100
AcDbPolyline
 90
        2
 70
     0
 43
0.5
 10
149.6708641744299
 20
130.7560916498933
 42
0.4142135623731
 10
141.6708641744299
 20
138.7560916498933
 42
0.4142135623731
  0
LWPOLYLINE
  5
6D5
330
1F
100
AcDbEntity
  8
Sichtbare_Kanten_TC_020513_DIN_
  6
Continuous
 62
     7
100
AcDbPolyline
 90
        2
 70
     0
 43
0.5
 10
127.9880047759679
 20
138.9345038998003
 42
0.22156182771651
 10
128.3708641744299
 20
138.7560916498933
 42
0.22156182771651
  0
LWPOLYLINE
  5
6D6
330
1F
100
AcDbEntity
  8
Sichtbare_Kanten_TC_020513_DIN_
  6
Continuous
 62
     7
100
AcDbPolyline
 90
        2
 70
     0
 43
0.5
 10
127.9880047759679
 20
138.9345038998003
 42
0.10501060713036
 10
121.438606278931
 20
144.0480673634723
 42
0.10501060713036
  0
LWPOLYLINE
  5
6D7
330
1F
100
AcDbEntity
  8
Sichtbare_Kanten_TC_020513_DIN_
  6
Continuous
 62
     7
100
AcDbPolyline
 90
        2
 70
     0
 43
0.5
 10
121.438606278931
 20
144.0480673634723
 42
0.55426459289409
 10
111.3708641744299
 20
137.7560916498933
 42
0.55426459289409
  0
LWPOLYLINE
  5
6D8
330
1F
100
AcDbEntity
  8
Sichtbare_Kanten_TC_020513_DIN_
  6
Continuous
 62
     7
100
AcDbPolyline
 90
        2
 70
     0
 43
0.5
 10
111.3708641744299
 20
124.2560916498933
 42
0.3234361362319
 10
111.7138043739219
 20
123.7813999403963
 42
0.3234361362319
  0
LWPOLYLINE
  5
6D9
330
1F
100
AcDbEntity
  8
Sichtbare_Kanten_TC_020513_DIN_
  6
Continuous
 62
     7
100
AcDbPolyline
 90
        2
 70
     0
 43
0.5
 10
111.7138043739219
 20
123.7813999403963
 42
0.37600288377067
 10
129.9210168910329
 20
131.4743516361963
 42
0.37600288377067
  0
LWPOLYLINE
  5
6DA
330
1F
100
AcDbEntity
  8
Sichtbare_Kanten_TC_020513_DIN_
  6
Continuous
 62
     7
100
AcDbPolyline
 90
        2
 70
     0
 43
0.5
 10
130.3708641744299
 20
131.7560916498933
 42
0.28730243078719
 10
129.9210168910329
 20
131.4743516361963
 42
0.28730243078719
  0
LWPOLYLINE
  5
6DB
330
1F
100
AcDbEntity
  8
Sichtbare_Kanten_TC_020513_DIN_
  6
Continuous
 62
     7
100
AcDbPolyline
 90
        2
 70
     0
 43
0.5
 10
142.6708641744299
 20
130.7560916498933
 42
0.4142135623731
 10
141.6708641744299
 20
131.7560916498933
 42
0.4142135623731
  0
LWPOLYLINE
  5
6DC
330
1F
100
AcDbEntity
  8
Sichtbare_Kanten_TC_020513_DIN_
  6
Continuous
 62
     7
100
AcDbPolyline
 90
        2
 70
     0
 43
0.5
 10
142.633209259422
 20
125.5394543473023
 42
0.4142135623731
 10
142.5332092594219
 20
125.4394543473023
 42
0.4142135623731
  0
LWPOLYLINE
  5
6DD
330
1F
100
AcDbEntity
  8
Sichtbare_Kanten_TC_020513_DIN_
  6
Continuous
 62
     7
100
AcDbPolyline
 90
        2
 70
     0
 43
0.5
 10
142.633209259422
 20
126.9394543473023
 42
0.4142135623731
 10
141.133209259422
 20
125.4394543473023
 42
0.4142135623731
  0
LWPOLYLINE
  5
6DE
330
1F
100
AcDbEntity
  8
Sichtbare_Kanten_TC_020513_DIN_
  6
Continuous
 62
     7
100
AcDbPolyline
 90
        2
 70
     0
 43
0.5
 10
47.07086417442953
 20
131.7560916498933
 42
0.4142135623731
 10
46.07086417442953
 20
130.7560916498933
 42
0.4142135623731
  0
LWPOLYLINE
  5
6DF
330
1F
100
AcDbEntity
  8
Sichtbare_Kanten_TC_020513_DIN_
  6
Continuous
 62
     7
100
AcDbPolyline
 90
        2
 70
     0
 43
0.5
 10
58.82071145782585
 20
131.4743516361963
 42
0.28730243078703
 10
58.37086417442954
 20
131.7560916498933
 42
0.28730243078703
  0
LWPOLYLINE
  5
6E0
330
1F
100
AcDbEntity
  8
Sichtbare_Kanten_TC_020513_DIN_
  6
Continuous
 62
     7
100
AcDbPolyline
 90
        2
 70
     0
 43
0.5
 10
58.82071145782585
 20
131.4743516361963
 42
0.37600288377067
 10
77.02792397493705
 20
123.7813999403963
 42
0.37600288377067
  0
LWPOLYLINE
  5
6E1
330
1F
100
AcDbEntity
  8
Sichtbare_Kanten_TC_020513_DIN_
  6
Continuous
 62
     7
100
AcDbPolyline
 90
        2
 70
     0
 43
0.5
 10
77.02792397493705
 20
123.7813999403963
 42
0.32343613623216
 10
77.37086417442966
 20
124.2560916498933
 42
0.32343613623216
  0
LWPOLYLINE
  5
6E2
330
1F
100
AcDbEntity
  8
Sichtbare_Kanten_TC_020513_DIN_
  6
Continuous
 62
     7
100
AcDbPolyline
 90
        2
 70
     0
 43
0.5
 10
77.37086417442954
 20
137.7560916498933
 42
0.55426459289411
 10
67.30312206992791
 20
144.0480673634723
 42
0.55426459289411
  0
LWPOLYLINE
  5
6E3
330
1F
100
AcDbEntity
  8
Sichtbare_Kanten_TC_020513_DIN_
  6
Continuous
 62
     7
100
AcDbPolyline
 90
        2
 70
     0
 43
0.5
 10
67.30312206992791
 20
144.0480673634723
 42
0.10501060713036
 10
60.75372357289133
 20
138.9345038998003
 42
0.10501060713036
  0
LWPOLYLINE
  5
6E4
330
1F
100
AcDbEntity
  8
Sichtbare_Kanten_TC_020513_DIN_
  6
Continuous
 62
     7
100
AcDbPolyline
 90
        2
 70
     0
 43
0.5
 10
60.37086417442954
 20
138.7560916498933
 42
0.22156182771644
 10
60.75372357289133
 20
138.9345038998003
 42
0.22156182771644
  0
LWPOLYLINE
  5
6E5
330
1F
100
AcDbEntity
  8
Sichtbare_Kanten_TC_020513_DIN_
  6
Continuous
 62
     7
100
AcDbPolyline
 90
        2
 70
     0
 43
0.5
 10
47.07086417442953
 20
138.7560916498933
 42
0.4142135623731
 10
39.07086417442953
 20
130.7560916498933
 42
0.4142135623731
  0
LWPOLYLINE
  5
6E6
330
1F
100
AcDbEntity
  8
Sichtbare_Kanten_TC_020513_DIN_
  6
Continuous
 62
     7
100
AcDbPolyline
 90
        2
 70
     0
 43
0.5
 10
65.08386221875993
 20
149.4293019169073
 42
0.24469844322924
 10
65.14198623809331
 20
148.9712261805913
 42
0.24469844322924
  0
LWPOLYLINE
  5
6E7
330
1F
100
AcDbEntity
  8
Sichtbare_Kanten_TC_020513_DIN_
  6
Continuous
 62
     7
100
AcDbPolyline
 90
        2
 70
     0
 43
0.5
 10
72.54941730667123
 20
154.6935916498933
 42
0.45934868709201
 10
66.14950722725355
 20
152.3149840530203
 42
0.45934868709201
  0
LWPOLYLINE
  5
6E8
330
1F
100
AcDbEntity
  8
Sichtbare_Kanten_TC_020513_DIN_
  6
Continuous
 62
     7
100
AcDbPolyline
 90
        2
 70
     0
 43
0.5
 10
72.54941730667123
 20
154.6935916498933
 42
1.29099444873581
 10
74.63114585525774
 20
162.7560916498933
 42
1.29099444873581
  0
LWPOLYLINE
  5
6E9
330
1F
100
AcDbEntity
  8
Sichtbare_Kanten_TC_020513_DIN_
  6
Continuous
 62
     7
100
AcDbPolyline
 90
        2
 70
     0
 43
0.5
 10
66.63114585525774
 20
162.7560916498933
 42
0.13830205371534
 10
48.34541864800055
 20
157.5995529186833
 42
0.13830205371534
  0
LWPOLYLINE
  5
6EA
330
1F
100
AcDbEntity
  8
Sichtbare_Kanten_TC_020513_DIN_
  6
Continuous
 62
     7
100
AcDbPolyline
 90
        2
 70
     0
 43
0.5
 10
46.37086417442954
 20
145.1170769848883
 42
0.22928747324999
 10
47.15516370061523
 20
145.4966946405023
 42
0.22928747324999
  0
LWPOLYLINE
  5
6EB
330
1F
100
AcDbEntity
  8
Sichtbare_Kanten_TC_020513_DIN_
  6
Continuous
 62
     7
100
AcDbPolyline
 90
        2
 70
     0
 43
0.5
 10
50.68105534662216
 20
149.1482414129853
 42
0.41421356237367
 10
49.97871441133675
 20
149.0662828220853
 42
0.41421356237367
  0
LWPOLYLINE
  5
6EC
330
1F
100
AcDbEntity
  8
Sichtbare_Kanten_TC_020513_DIN_
  6
Continuous
 62
     7
100
AcDbPolyline
 90
        2
 70
     0
 43
0.5
 10
60.98271841270993
 20
140.7996695212663
 42
0.20643458883403
 10
60.79481223585664
 20
141.1482414129853
 42
0.20643458883403
  0
LWPOLYLINE
  5
6ED
330
1F
100
AcDbEntity
  8
Sichtbare_Kanten_TC_020513_DIN_
  6
Continuous
 62
     7
100
AcDbPolyline
 90
        2
 70
     0
 43
0.5
 10
47.60851908943705
 20
125.4394543473023
 42
0.4142135623731
 10
46.10851908943705
 20
126.9394543473023
 42
0.4142135623731
  0
LWPOLYLINE
  5
6EE
330
1F
100
AcDbEntity
  8
Sichtbare_Kanten_TC_020513_DIN_
  6
Continuous
 62
     7
100
AcDbPolyline
 90
        2
 70
     0
 43
0.5
 10
46.20851908943702
 20
125.4394543473023
 42
0.4142135623731
 10
46.10851908943705
 20
125.5394543473023
 42
0.4142135623731
  0
LWPOLYLINE
  5
6EF
330
1F
100
AcDbEntity
  8
Sichtbare_Kanten_TC_020513_DIN_
  6
Continuous
 62
     7
100
AcDbPolyline
 90
        2
 70
     0
 43
0.5
 10
127.9469161130019
 20
141.1482414129853
 42
0.20643458883383
 10
127.7590099361489
 20
140.7996695212663
 42
0.20643458883383
  0
LWPOLYLINE
  5
6F0
330
1F
100
AcDbEntity
  8
Sichtbare_Kanten_TC_020513_DIN_
  6
Continuous
 62
     7
100
AcDbPolyline
 90
        2
 70
     0
 43
0.5
 10
138.7630139375219
 20
149.0662828220853
 42
0.41421356237355
 10
138.0606730022369
 20
149.1482414129853
 42
0.41421356237355
  0
LWPOLYLINE
  5
6F1
330
1F
100
AcDbEntity
  8
Sichtbare_Kanten_TC_020513_DIN_
  6
Continuous
 62
     7
100
AcDbPolyline
 90
        2
 70
     0
 43
0.5
 10
141.5865646482439
 20
145.4966946405023
 42
0.22928747325004
 10
142.3708641744299
 20
145.1170769848883
 42
0.22928747325004
  0
LWPOLYLINE
  5
6F2
330
1F
100
AcDbEntity
  8
Sichtbare_Kanten_TC_020513_DIN_
  6
Continuous
 62
     7
100
AcDbPolyline
 90
        2
 70
     0
 43
0.5
 10
140.3963097008589
 20
157.5995529186833
 42
0.13830205371534
 10
122.1105824936009
 20
162.7560916498933
 42
0.13830205371534
  0
LWPOLYLINE
  5
6F3
330
1F
100
AcDbEntity
  8
Sichtbare_Kanten_TC_020513_DIN_
  6
Continuous
 62
     7
100
AcDbPolyline
 90
        2
 70
     0
 43
0.5
 10
114.1105824936019
 20
162.7560916498933
 42
1.29099444873575
 10
116.192311042188
 20
154.6935916498933
 42
1.29099444873575
  0
LWPOLYLINE
  5
6F4
330
1F
100
AcDbEntity
  8
Sichtbare_Kanten_TC_020513_DIN_
  6
Continuous
 62
     7
100
AcDbPolyline
 90
        2
 70
     0
 43
0.5
 10
122.5922211216059
 20
152.3149840530203
 42
0.45934868709203
 10
116.192311042188
 20
154.6935916498933
 42
0.45934868709203
  0
LWPOLYLINE
  5
6F5
330
1F
100
AcDbEntity
  8
Sichtbare_Kanten_TC_020513_DIN_
  6
Continuous
 62
     7
100
AcDbPolyline
 90
        2
 70
     0
 43
0.5
 10
123.5997421107659
 20
148.9712261805913
 42
0.24469844322933
 10
123.6578661300989
 20
149.4293019169073
 42
0.24469844322933
  0
LWPOLYLINE
  5
6F6
330
1F
100
AcDbEntity
  8
Sichtbare_Kanten_TC_020513_DIN_
  6
Continuous
 62
     7
100
AcDbPolyline
 90
        2
 70
     0
 43
0.5
 10
255.1109295254639
 20
133.7560916498933
 42
1.0
 10
256.5109295254639
 20
133.7560916498933
 42
1.0
  0
LWPOLYLINE
  5
6F7
330
1F
100
AcDbEntity
  8
Sichtbare_Kanten_TC_020513_DIN_
  6
Continuous
 62
     7
100
AcDbPolyline
 90
        2
 70
     0
 43
0.5
 10
256.5109295254639
 20
141.7560916498933
 42
1.0
 10
255.1109295254639
 20
141.7560916498933
 42
1.0
  0
LWPOLYLINE
  5
6F8
330
1F
100
AcDbEntity
  8
Sichtbare_Kanten_TC_020513_DIN_
  6
Continuous
 62
     7
100
AcDbPolyline
 90
        2
 70
     0
 43
0.5
 10
200.9109295254639
 20
141.7560916498933
 42
1.0
 10
199.5109295254639
 20
141.7560916498933
 42
1.0
  0
LWPOLYLINE
  5
6F9
330
1F
100
AcDbEntity
  8
Sichtbare_Kanten_TC_020513_DIN_
  6
Continuous
 62
     7
100
AcDbPolyline
 90
        2
 70
     0
 43
0.5
 10
199.5109295254639
 20
133.7560916498933
 42
1.0
 10
200.9109295254639
 20
133.7560916498933
 42
1.0
  0
LWPOLYLINE
  5
6FA
330
1F
100
AcDbEntity
  8
Sichtbare_Kanten_TC_020513_DIN_
  6
Continuous
 62
     7
100
AcDbPolyline
 90
        2
 70
     0
 43
0.5
 10
201.5109295254549
 20
128.3394543473023
 42
0.4142135623731
 10
204.3109295254549
 20
125.5394543473023
 42
0.4142135623731
  0
LWPOLYLINE
  5
6FB
330
1F
100
AcDbEntity
  8
Sichtbare_Kanten_TC_020513_DIN_
  6
Continuous
 62
     7
100
AcDbPolyline
 90
        2
 70
     0
 43
0.5
 10
202.9109295254549
 20
128.3394543473023
 42
0.4142135623731
 10
204.3109295254549
 20
126.9394543473023
 42
0.4142135623731
  0
LWPOLYLINE
  5
6FC
330
1F
100
AcDbEntity
  8
Sichtbare_Kanten_TC_020513_DIN_
  6
Continuous
 62
     7
100
AcDbPolyline
 90
        2
 70
     0
 43
0.5
 10
217.7275668280479
 20
124.6017994322943
 42
0.4142135623731
 10
218.2275668280479
 20
125.1017994322943
 42
0.4142135623731
  0
LWPOLYLINE
  5
6FD
330
1F
100
AcDbEntity
  8
Sichtbare_Kanten_TC_020513_DIN_
  6
Continuous
 62
     7
100
AcDbPolyline
 90
        2
 70
     0
 43
0.5
 10
237.7942922228659
 20
125.1017994322943
 42
0.4142135623731
 10
238.2942922228659
 20
124.6017994322943
 42
0.4142135623731
  0
LWPOLYLINE
  5
6FE
330
1F
100
AcDbEntity
  8
Sichtbare_Kanten_TC_020513_DIN_
  6
Continuous
 62
     7
100
AcDbPolyline
 90
        2
 70
     0
 43
0.5
 10
243.5068312520989
 20
153.5337142874783
 42
0.19329431317682
 10
244.5442922228649
 20
153.1170769848883
 42
0.19329431317682
  0
LWPOLYLINE
  5
6FF
330
1F
100
AcDbEntity
  8
Sichtbare_Kanten_TC_020513_DIN_
  6
Continuous
 62
     7
100
AcDbPolyline
 90
        2
 70
     0
 43
0.5
 10
247.4334776441999
 20
153.1170769848883
 42
0.22169466264285
 10
248.1995220873189
 20
153.4742893752013
 42
0.22169466264285
  0
LWPOLYLINE
  5
700
330
1F
100
AcDbEntity
  8
Sichtbare_Kanten_TC_020513_DIN_
  6
Continuous
 62
     7
100
AcDbPolyline
 90
        2
 70
     0
 43
0.5
 10
244.5442922228649
 20
145.1170769848883
 42
0.33945425886397
 10
244.302810766293
 20
144.9317817461633
 42
0.33945425886397
  0
LWPOLYLINE
  5
701
330
1F
100
AcDbEntity
  8
Sichtbare_Kanten_TC_020513_DIN_
  6
Continuous
 62
     7
100
AcDbPolyline
 90
        2
 70
     0
 43
0.5
 10
211.477566828046
 20
153.1170769848883
 42
0.19329431317682
 10
212.515027798812
 20
153.5337142874783
 42
0.19329431317682
  0
LWPOLYLINE
  5
702
330
1F
100
AcDbEntity
  8
Sichtbare_Kanten_TC_020513_DIN_
  6
Continuous
 62
     7
100
AcDbPolyline
 90
        2
 70
     0
 43
0.5
 10
207.8223369635919
 20
153.4742893752013
 42
0.22169466264285
 10
208.5883814067109
 20
153.1170769848883
 42
0.22169466264285
  0
LWPOLYLINE
  5
703
330
1F
100
AcDbEntity
  8
Sichtbare_Kanten_TC_020513_DIN_
  6
Continuous
 62
     7
100
AcDbPolyline
 90
        2
 70
     0
 43
0.5
 10
211.7190482846189
 20
144.9317817461633
 42
0.33945425886426
 10
211.477566828046
 20
145.1170769848883
 42
0.33945425886426
  0
LWPOLYLINE
  5
704
330
1F
100
AcDbEntity
  8
Sichtbare_Kanten_TC_020513_DIN_
  6
Continuous
 62
     7
100
AcDbPolyline
 90
        2
 70
     0
 43
0.5
 10
251.710929525455
 20
125.5394543473023
 42
0.4142135623731
 10
254.5109295254609
 20
128.3394543473023
 42
0.4142135623731
  0
LWPOLYLINE
  5
705
330
1F
100
AcDbEntity
  8
Sichtbare_Kanten_TC_020513_DIN_
  6
Continuous
 62
     7
100
AcDbPolyline
 90
        2
 70
     0
 43
0.5
 10
251.710929525455
 20
126.9394543473023
 42
0.4142135623731
 10
253.1109295254549
 20
128.3394543473023
 42
0.4142135623731
  0
LWPOLYLINE
  5
706
330
1F
100
AcDbEntity
  8
Sichtbare_Kanten_TC_020513_DIN_
  6
Continuous
 62
     7
100
AcDbPolyline
 90
        2
 70
     0
 43
0.5
 10
251.810929525465
 20
127.6184367348853
 42
0.4142135623731
 10
251.910929525464
 20
127.5184367348853
 42
0.4142135623731
  0
LWPOLYLINE
  5
707
330
1F
100
AcDbEntity
  8
Sichtbare_Kanten_TC_020513_DIN_
  6
Continuous
 62
     7
100
AcDbPolyline
 90
        2
 70
     0
 43
0.5
 10
250.410929525464
 20
127.6184367348853
 42
0.11797797415311
 10
250.573400865079
 20
126.9394543473023
 42
0.11797797415311
  0
LWPOLYLINE
  5
708
330
1F
100
AcDbEntity
  8
Sichtbare_Kanten_TC_020513_DIN_
  6
Continuous
 62
     7
100
AcDbPolyline
 90
        2
 70
     0
 43
0.5
 10
204.1109295254649
 20
127.5184367348853
 42
0.4142135623731
 10
204.210929525465
 20
127.6184367348853
 42
0.4142135623731
  0
LWPOLYLINE
  5
709
330
1F
100
AcDbEntity
  8
Sichtbare_Kanten_TC_020513_DIN_
  6
Continuous
 62
     7
100
AcDbPolyline
 90
        2
 70
     0
 43
0.5
 10
205.4484581858499
 20
126.9394543473023
 42
0.11797797415311
 10
205.6109295254639
 20
127.6184367348853
 42
0.11797797415311
  0
LWPOLYLINE
  5
70A
330
1F
100
AcDbEntity
  8
Skizziergeometrie_TC_020513_DIN_
  6
DASHED
 62
     7
100
AcDbPolyline
 90
        2
 70
     0
 43
0.35
 10
44.09648120495696
 20
165.9675945743033
 42
0.26799767405769
 10
24.77655558704022
 20
121.0006913381863
 42
0.26799767405769
  0
LWPOLYLINE
  5
70B
330
1F
100
AcDbEntity
  8
Skizziergeometrie_TC_020513_DIN_
  6
DASHED
 62
     7
100
AcDbPolyline
 90
        2
 70
     0
 43
0.35
 10
164.3048141461459
 20
126.7560916498933
 42
0.23664730488066
 10
144.6452471439019
 20
165.9675945743033
 42
0.23664730488066
  0
LWPOLYLINE
  5
70C
330
1F
100
AcDbEntity
  8
Sichtbare_Kanten_TC_020513_DIN_
  6
Continuous
 62
     7
100
AcDbPolyline
 90
        2
 70
     1
 43
0.5
 10
113.6708641744299
 20
137.7560916498933
 42
1.0
 10
123.0708641744299
 20
137.7560916498933
 42
1.0
  0
LWPOLYLINE
  5
70D
330
1F
100
AcDbEntity
  8
Sichtbare_Kanten_TC_020513_DIN_
  6
Continuous
 62
     7
100
AcDbPolyline
 90
        2
 70
     1
 43
0.5
 10
65.67086417442955
 20
137.7560916498933
 42
1.0
 10
75.07086417442953
 20
137.7560916498933
 42
1.0
  0
LWPOLYLINE
  5
70E
330
1F
100
AcDbEntity
  8
Sichtbare_Kanten_TC_020513_DIN_
  6
Continuous
 62
     7
100
AcDbPolyline
 90
        2
 70
     1
 43
0.5
 10
113.6208641744299
 20
126.7560916498933
 42
1.0
 10
117.1208641744299
 20
126.7560916498933
 42
1.0
  0
LWPOLYLINE
  5
70F
330
1F
100
AcDbEntity
  8
Sichtbare_Kanten_TC_020513_DIN_
  6
Continuous
 62
     7
100
AcDbPolyline
 90
        2
 70
     1
 43
0.5
 10
71.62086417442954
 20
126.7560916498933
 42
1.0
 10
75.12086417442954
 20
126.7560916498933
 42
1.0
  0
LWPOLYLINE
  5
710
330
1F
100
AcDbEntity
  8
Sichtbare_Kanten_TC_020513_DIN_
  6
Continuous
 62
     7
100
AcDbPolyline
 90
        2
 70
     1
 43
0.5
 10
212.0109295254539
 20
89.7560916498929
 42
1.0
 10
244.0109295254539
 20
89.7560916498929
 42
1.0
  0
LWPOLYLINE
  5
711
330
1F
100
AcDbEntity
  8
Sichtbare_Kanten_TC_020513_DIN_
  6
Continuous
 62
     7
100
AcDbPolyline
 90
        2
 70
     1
 43
0.5
 10
211.0109295254539
 20
89.7560916498929
 42
1.0
 10
245.0109295254539
 20
89.7560916498929
 42
1.0
  0
LWPOLYLINE
  5
712
330
1F
100
AcDbEntity
  8
Sichtbare_Kanten_TC_020513_DIN_
  6
Continuous
 62
     7
100
AcDbPolyline
 90
        2
 70
     1
 43
0.5
 10
215.0109295254498
 20
89.7560916498929
 42
1.0
 10
241.010929525458
 20
89.7560916498929
 42
1.0
  0
SPLINE
  5
713
330
1F
100
AcDbEntity
  8
Sichtbare_Kanten_TC_020513_DIN_
  6
Continuous
 62
     7
100
AcDbSpline
210
0.0
220
0.0
230
1.0
 70
     8
 71
     3
 72
    19
 73
    15
 74
    13
 42
0.000000001
 43
0.0000000001
 44
0.00000001
 40
0.0
 40
0.0
 40
0.0
 40
0.0
 40
0.3474606674151174
 40
0.6949175350301238
 40
0.8665696488950889
 40
1.038221191656043
 40
1.207484861390506
 40
1.376745209810227
 40
1.543251855854219
 40
1.709751057160856
 40
1.873443934534021
 40
2.037147336109786
 40
2.278188137688285
 40
2.518986528947309
 40
2.518986528947309
 40
2.518986528947309
 40
2.518986528947309
 10
240.1383145755999
 20
135.5217215112133
 30
0.0
 10
240.2542463455128
 20
135.5269784736053
 30
0.0
 10
240.4861086163617
 20
135.5374923555743
 30
0.0
 10
240.7681804225325
 20
135.6085656732866
 30
0.0
 10
240.9839645243665
 20
135.689132649105
 30
0.0
 10
241.13870127268
 20
135.7621264623498
 30
0.0
 10
241.2861780615384
 20
135.8471726323962
 30
0.0
 10
241.4246061678583
 20
135.9433323592624
 30
0.0
 10
241.5536164556903
 20
136.050364053631
 30
0.0
 10
241.6715377457787
 20
136.1668713652055
 30
0.0
 10
241.7782014713205
 20
136.292607830341
 30
0.0
 10
241.88707664165
 20
136.44784398879
 30
0.0
 10
241.9922103579213
 20
136.6368664440407
 30
0.0
 10
242.0441896594314
 20
136.7891127798897
 30
0.0
 10
242.0701662281789
 20
136.8651976532673
 30
0.0
 11
240.1383145755999
 21
135.5217215112133
 31
0.0
 11
240.4846938948905
 21
135.5491127974529
 31
0.0
 11
240.8223548622517
 21
135.6310356060088
 31
0.0
 11
240.9830634813998
 21
135.6913447104097
 31
0.0
 11
241.1383145756002
 21
135.7645659508439
 31
0.0
 11
241.2849118835598
 21
135.849179303089
 31
0.0
 11
241.4238897949736
 21
135.9457929972572
 31
0.0
 11
241.5519993662233
 21
136.0521527695895
 31
0.0
 11
241.6704034618388
 21
136.169210253148
 31
0.0
 11
241.7761997671736
 21
136.2941202215204
 31
0.0
 11
241.8703653831693
 21
136.4280292982502
 31
0.0
 11
241.9856198008965
 21
136.6397297665659
 31
0.0
 11
242.0701662281789
 21
136.8651976532673
 31
0.0
  0
SPLINE
  5
714
330
1F
100
AcDbEntity
  8
Sichtbare_Kanten_TC_020513_DIN_
  6
Continuous
 62
     7
100
AcDbSpline
210
0.0
220
0.0
230
1.0
 70
     8
 71
     3
 72
    19
 73
    15
 74
    13
 42
0.000000001
 43
0.0000000001
 44
0.00000001
 40
0.0
 40
0.0
 40
0.0
 40
0.0
 40
0.3474606674140862
 40
0.694917535029295
 40
0.8665696488945696
 40
1.038221191655763
 40
1.207484861390047
 40
1.376745209809476
 40
1.543251855853094
 40
1.709751057159571
 40
1.873443934533068
 40
2.037147336109183
 40
2.278188137688038
 40
2.518986528946839
 40
2.518986528946839
 40
2.518986528946839
 40
2.518986528946839
 10
240.1383145755999
 20
136.1133870776513
 30
0.0
 10
240.2542463455124
 20
136.118644040043
 30
0.0
 10
240.486108616361
 20
136.1291579220109
 30
0.0
 10
240.7681804225321
 20
136.2002312397232
 30
0.0
 10
240.983964524366
 20
136.2807982155417
 30
0.0
 10
241.1387012726798
 20
136.3537920287866
 30
0.0
 10
241.2861780615378
 20
136.4388381988331
 30
0.0
 10
241.4246061678576
 20
136.5349979256993
 30
0.0
 10
241.5536164556893
 20
136.6420296200675
 30
0.0
 10
241.6715377457779
 20
136.7585369316418
 30
0.0
 10
241.7782014713199
 20
136.8842733967774
 30
0.0
 10
241.8870766416498
 20
137.0395095552266
 30
0.0
 10
241.9922103579212
 20
137.2285320104775
 30
0.0
 10
242.0441896594309
 20
137.3807783463267
 30
0.0
 10
242.070166228178
 20
137.4568632197043
 30
0.0
 11
240.1383145755999
 21
136.1133870776513
 31
0.0
 11
240.4846938948895
 21
136.1407783638897
 31
0.0
 11
240.8223548622511
 21
136.2227011724453
 31
0.0
 11
240.9830634813994
 21
136.2830102768464
 31
0.0
 11
241.1383145756
 21
136.3562315172808
 31
0.0
 11
241.2849118835593
 21
136.440844869526
 31
0.0
 11
241.4238897949728
 21
136.537458563694
 31
0.0
 11
241.5519993662223
 21
136.643818336026
 31
0.0
 11
241.6704034618379
 21
136.7608758195843
 31
0.0
 11
241.7761997671729
 21
136.8857857879569
 31
0.0
 11
241.8703653831689
 21
137.0196948646869
 31
0.0
 11
241.9856198008963
 21
137.2313953330029
 31
0.0
 11
242.070166228178
 21
137.4568632197043
 31
0.0
  0
SPLINE
  5
715
330
1F
100
AcDbEntity
  8
Sichtbare_Kanten_TC_020513_DIN_
  6
Continuous
 62
     7
100
AcDbSpline
210
0.0
220
0.0
230
1.0
 70
     8
 71
     3
 72
    19
 73
    15
 74
    13
 42
0.000000001
 43
0.0000000001
 44
0.00000001
 40
0.0
 40
0.0
 40
0.0
 40
0.0
 40
0.322186220537014
 40
0.6443862618342329
 40
0.8094705328394823
 40
0.9745562229278696
 40
1.142463280811773
 40
1.310374909567007
 40
1.480895931773816
 40
1.651417687594016
 40
1.824033462668455
 40
1.996661195040361
 40
2.257865073018768
 40
2.518894987889208
 40
2.518894987889208
 40
2.518894987889208
 40
2.518894987889208
 10
213.951692822732
 20
136.8651976532673
 30
0.0
 10
213.9879064856097
 20
136.7637633326288
 30
0.0
 10
214.0603353783328
 20
136.5608903455935
 30
0.0
 10
214.2097270247658
 20
136.3331999020849
 30
0.0
 10
214.3500807016022
 20
136.1670236635259
 30
0.0
 10
214.4684278726574
 20
136.0502068287119
 30
0.0
 10
214.5970766424504
 20
135.9434727860628
 30
0.0
 10
214.7358566547782
 20
135.8470597991327
 30
0.0
 10
214.8829908077381
 20
135.7622006048788
 30
0.0
 10
215.0380412215319
 20
135.6891388024532
 30
0.0
 10
215.199198159584
 20
135.6286369014832
 30
0.0
 10
215.393771734873
 20
135.5733811108754
 30
0.0
 10
215.6223120092613
 20
135.5306376188138
 30
0.0
 10
215.7964863262742
 20
135.5246928821034
 30
0.0
 10
215.8835444753099
 20
135.5217215112133
 30
0.0
 11
213.951692822732
 21
136.8651976532673
 31
0.0
 11
214.0719572339281
 21
136.566298952553
 31
0.0
 11
214.2452403867317
 21
136.2946635038353
 31
0.0
 11
214.3519345994835
 21
136.1686906424611
 31
0.0
 11
214.4693309129362
 21
136.0526243211751
 31
0.0
 11
214.5985237930437
 21
135.9453770364604
 31
0.0
 11
214.7363916026076
 21
135.8495293322749
 31
0.0
 11
214.8840788541764
 21
135.7642891130806
 31
0.0
 11
215.0383079518283
 21
135.6915494756005
 31
0.0
 11
215.1999176430454
 21
135.630898723593
 31
0.0
 11
215.3659063851044
 21
135.5834848891561
 31
0.0
 11
215.6229724722031
 21
135.5371762158107
 31
0.0
 11
215.8835444753099
 21
135.5217215112133
 31
0.0
  0
SPLINE
  5
716
330
1F
100
AcDbEntity
  8
Sichtbare_Kanten_TC_020513_DIN_
  6
Continuous
 62
     7
100
AcDbSpline
210
0.0
220
0.0
230
1.0
 70
     8
 71
     3
 72
    19
 73
    15
 74
    13
 42
0.000000001
 43
0.0000000001
 44
0.00000001
 40
0.0
 40
0.0
 40
0.0
 40
0.0
 40
0.3221862205370407
 40
0.6443862618341488
 40
0.8094705328394085
 40
0.9745562229278777
 40
1.142463280811992
 40
1.310374909567434
 40
1.480895931774318
 40
1.651417687594571
 40
1.824033462669082
 40
1.99666119504109
 40
2.257865073019271
 40
2.518894987888666
 40
2.518894987888666
 40
2.518894987888666
 40
2.518894987888666
 10
213.9516928227309
 20
137.4568632197043
 30
0.0
 10
213.9879064856086
 20
137.3554288990657
 30
0.0
 10
214.0603353783317
 20
137.1525559120306
 30
0.0
 10
214.2097270247651
 20
136.9248654685222
 30
0.0
 10
214.3500807016018
 20
136.7586892299633
 30
0.0
 10
214.4684278726574
 20
136.6418723951496
 30
0.0
 10
214.5970766424503
 20
136.5351383525002
 30
0.0
 10
214.7358566547782
 20
136.43872536557
 30
0.0
 10
214.882990807738
 20
136.3538661713157
 30
0.0
 10
215.038041221532
 20
136.2808043688902
 30
0.0
 10
215.199198159584
 20
136.22030246792
 30
0.0
 10
215.3937717348732
 20
136.1650466773124
 30
0.0
 10
215.6223120092611
 20
136.1223031852508
 30
0.0
 10
215.7964863262735
 20
136.1163584485411
 30
0.0
 10
215.8835444753089
 20
136.1133870776513
 30
0.0
 11
213.9516928227309
 21
137.4568632197043
 31
0.0
 11
214.0719572339272
 21
137.15796451899
 31
0.0
 11
214.245240386731
 21
136.8863290702727
 31
0.0
 11
214.3519345994831
 21
136.7603562088987
 31
0.0
 11
214.4693309129361
 21
136.6442898876128
 31
0.0
 11
214.5985237930437
 21
136.5370426028979
 31
0.0
 11
214.7363916026076
 21
136.4411948987121
 31
0.0
 11
214.8840788541764
 21
136.3559546795176
 31
0.0
 11
215.0383079518284
 21
136.2832150420375
 31
0.0
 11
215.1999176430455
 21
136.22256429003
 31
0.0
 11
215.3659063851046
 21
136.1751504555931
 31
0.0
 11
215.6229724722031
 21
136.1288417822479
 31
0.0
 11
215.8835444753089
 21
136.1133870776513
 31
0.0
  0
LWPOLYLINE
  5
717
330
1F
100
AcDbEntity
  8
Sichtbare_Kanten_TC_020513_DIN_
  6
Continuous
 62
     7
100
AcDbPolyline
 90
       25
 70
     0
 43
0.5
 10
47.62086608177823
 20
94.74983840740019
 10
47.62203910118736
 20
94.3434634760648
 10
47.62521006828946
 20
93.9336410120755
 10
47.62982585198081
 20
93.5208621577054
 10
47.63531901604331
 20
93.1056132868558
 10
47.64107444054282
 20
92.68837123668489
 10
47.64681079155606
 20
92.2696557596952
 10
47.65229918724693
 20
91.8499961451322
 10
47.65730597740811
 20
91.4299216822415
 10
47.66160704857511
 20
91.0099616602689
 10
47.66495921379722
 20
90.590654905203
 10
47.66714312798185
 20
90.1725211695462
 10
47.66792514092124
 20
89.75608974254429
 10
47.66714312798185
 20
89.33966308391389
 10
47.66495921379722
 20
88.9215293482572
 10
47.66160704857511
 20
88.5022178248197
 10
47.65730597740811
 20
88.08226257121859
 10
47.65229918724693
 20
87.662188108328
 10
47.64681079155606
 20
87.242528493765
 10
47.64107444054282
 20
86.82381301677519
 10
47.63531901604331
 20
86.4065661982328
 10
47.62982585198081
 20
85.9913220957547
 10
47.62521006828946
 20
85.5785432413846
 10
47.62203910118736
 20
85.1687207773954
 10
47.62086608177823
 20
84.76234584605989
  0
LWPOLYLINE
  5
718
330
1F
100
AcDbEntity
  8
Sichtbare_Kanten_TC_020513_DIN_
  6
Continuous
 62
     7
100
AcDbPolyline
 90
       25
 70
     0
 43
0.5
 10
141.1208651281039
 20
84.76234584605989
 10
141.1196372724219
 20
85.17595439708529
 10
141.116592667166
 20
85.5927815989286
 10
141.1124417997039
 20
86.0120883539945
 10
141.1074755407019
 20
86.43302112376989
 10
141.1019895291969
 20
86.85472160136999
 10
141.096279404227
 20
87.27633147991
 10
141.0906408048309
 20
87.6969924525052
 10
141.0853646016759
 20
88.11585098064239
 10
141.0807488179839
 20
88.5320487574369
 10
141.0770867086089
 20
88.9447227076322
 10
141.0746739125889
 20
89.3530240610868
 10
141.0738036847749
 20
89.75608974254429
 10
141.0746739125889
 20
90.15916019237339
 10
141.0770867086089
 20
90.5674567774564
 10
141.0807488179839
 20
90.9801354960233
 10
141.0853646016759
 20
91.3963332728177
 10
141.0906408048309
 20
91.8151870325833
 10
141.096279404227
 20
92.23585277355009
 10
141.1019895291969
 20
92.65746265209019
 10
141.1074755407019
 20
93.07915836131869
 10
141.1124417997039
 20
93.5000911310941
 10
141.116592667166
 20
93.9194026545316
 10
141.1196372724219
 20
94.3362298563748
 10
141.1208651281039
 20
94.74983840740019
  0
LWPOLYLINE
  5
719
330
1F
100
AcDbEntity
  8
Sichtbare_Kanten_TC_020513_DIN_
  6
Continuous
 62
     7
100
AcDbPolyline
 90
       25
 70
     0
 43
0.5
 10
145.399839661185
 20
142.3735687092573
 10
145.378730080191
 20
142.4199330762653
 10
145.358478806082
 20
142.4666541770723
 10
145.339083454673
 20
142.5137203887733
 10
145.320553562705
 20
142.5611194924143
 10
145.3028891301789
 20
142.6088398650913
 10
145.2860973096529
 20
142.6568695858743
 10
145.2701804853119
 20
142.7051961377893
 10
145.2551434255279
 20
142.7538081959513
 10
145.2409908986729
 20
142.8026935414103
 10
145.2277252889319
 20
142.8518399552133
 10
145.2153513646759
 20
142.9012355164323
 10
145.2038715100929
 20
142.9508689001833
 10
145.193300030295
 20
143.0007031515863
 10
145.1836393094699
 20
143.0507001236703
 10
145.1748917318029
 20
143.1008484915523
 10
145.1670572972929
 20
143.1511351422103
 10
145.160143158499
 20
143.2015469626223
 10
145.1541445470489
 20
143.2520726279053
 10
145.1490638471289
 20
143.3026990250383
 10
145.1449058271089
 20
143.3534130409983
 10
145.1416681028049
 20
143.4042027548583
 10
145.1393554425879
 20
143.4550556496413
 10
145.1379654622709
 20
143.5059586123253
 10
145.1375005460419
 20
143.5568997219833
  0
LWPOLYLINE
  5
71A
330
1F
100
AcDbEntity
  8
Sichtbare_Kanten_TC_020513_DIN_
  6
Continuous
 62
     7
100
AcDbPolyline
 90
       25
 70
     0
 43
0.5
 10
146.5375015950839
 20
143.5568997219833
 10
146.537732861106
 20
143.5314294651773
 10
146.5384290433569
 20
143.5059776858123
 10
146.5395853734649
 20
143.4805515364433
 10
146.5412042356169
 20
143.4551563814903
 10
146.5432832456269
 20
143.4297993735103
 10
146.5458224034949
 20
143.4044864729673
 10
146.5488217092199
 20
143.3792236403253
 10
146.5522787786169
 20
143.3540174320963
 10
146.5561959958709
 20
143.3288744047913
 10
146.5605709767979
 20
143.3037999228263
 10
146.5654013372099
 20
143.2788017348083
 10
146.5706870771089
 20
143.2538846091063
 10
146.5764258123079
 20
143.2290676192073
 10
146.5826127744359
 20
143.2043698385983
 10
146.589245579306
 20
143.1797966316973
 10
146.5963218427339
 20
143.1553539589673
 10
146.6038415647189
 20
143.1310477808743
 10
146.611799976889
 20
143.1068846539293
 10
146.6201946950589
 20
143.0828699425493
 10
146.629028103415
 20
143.0590096071983
 10
146.638293049399
 20
143.0353102043893
 10
146.6479895330109
 20
143.0117770985393
 10
146.6581151700659
 20
142.9884162501123
 10
146.6686699605619
 20
142.9652342156203
  0
LWPOLYLINE
  5
71B
330
1F
100
AcDbEntity
  8
Sichtbare_Kanten_TC_020513_DIN_
  6
Continuous
 62
     7
100
AcDbPolyline
 90
       25
 70
     0
 43
0.5
 10
145.6281826711339
 20
155.1170769289763
 10
145.6938955999059
 20
155.2088943079743
 10
145.763327858512
 20
155.2980735853943
 10
145.8364055371919
 20
155.3844955519463
 10
145.913014195029
 20
155.4679980829983
 10
145.9928319669409
 20
155.5482271269593
 10
146.0757110334079
 20
155.6250622824463
 10
146.1615393376989
 20
155.6984201029573
 10
146.2502048230809
 20
155.7682219103603
 10
146.3415978170079
 20
155.8343842581543
 10
146.4356038785619
 20
155.8968260840203
 10
146.532113335196
 20
155.9554651335503
 10
146.6310117459929
 20
156.0102203444273
 10
146.7321894384069
 20
156.0610094622403
 10
146.8354556775729
 20
156.1077180460723
 10
146.9404576039949
 20
156.1501815871033
 10
147.047047398154
 20
156.1883500174313
 10
147.1550963140169
 20
156.2221780375273
 10
147.2644684529939
 20
156.2516227320463
 10
147.3750183797519
 20
156.2766352251793
 10
147.4864361501379
 20
156.2971427992613
 10
147.5985310292879
 20
156.3131204203393
 10
147.7111671186129
 20
156.3245513991143
 10
147.8242037511509
 20
156.3314214304713
 10
147.9375026441259
 20
156.3337138251093
  0
LWPOLYLINE
  5
71C
330
1F
100
AcDbEntity
  8
Sichtbare_Kanten_TC_020513_DIN_
  6
Continuous
 62
     7
100
AcDbPolyline
 90
       25
 70
     0
 43
0.5
 10
147.9375026441259
 20
154.9337139681603
 10
147.8658554769199
 20
154.9318793371943
 10
147.7945420957249
 20
154.9263957098753
 10
147.723696014945
 20
154.9172905043393
 10
147.6534531331699
 20
154.9045947150023
 10
147.5839541173619
 20
154.8883369520933
 10
147.5153324819249
 20
154.8685446337493
 10
147.4477288938209
 20
154.8452487543853
 10
147.3812792516389
 20
154.8184779242303
 10
147.3162386632599
 20
154.7883191660673
 10
147.2529552198089
 20
154.7549405649933
 10
147.1915457463899
 20
154.7184291437893
 10
147.1321270681059
 20
154.6788647726803
 10
147.0748112416899
 20
154.6363308981683
 10
147.01971270806
 20
154.5909097746643
 10
146.966943523947
 20
154.5426824644833
 10
146.9166181302709
 20
154.4917324141293
 10
146.8689034200349
 20
154.4382026747493
 10
146.8240688062349
 20
154.3823996142183
 10
146.7822001195589
 20
154.3244603232173
 10
146.743373653952
 20
154.2645052031313
 10
146.7076585508029
 20
154.2026558474333
 10
146.6751263356839
 20
154.1390302733213
 10
146.6458509183569
 20
154.0737512663633
 10
146.6199062085789
 20
154.0069380358483
  0
LWPOLYLINE
  5
71D
330
1F
100
AcDbEntity
  8
Sichtbare_Kanten_TC_020513_DIN_
  6
Continuous
 62
     7
100
AcDbPolyline
 90
       25
 70
     0
 43
0.5
 10
146.6199062085789
 20
154.0069380358483
 10
146.6150114751499
 20
153.9930465773373
 10
146.6097138143219
 20
153.9773991659913
 10
146.6040966725989
 20
153.9600911692413
 10
146.598250649039
 20
153.9412227228913
 10
146.5922591901459
 20
153.9208915785583
 10
146.5862152791659
 20
153.8991954878603
 10
146.5802023626009
 20
153.8762345865993
 10
146.5743086553259
 20
153.8521054343013
 10
146.5686223722139
 20
153.8269057825833
 10
146.56323172814
 20
153.8007369593413
 10
146.5582249379789
 20
153.7736943320063
 10
146.5537426686919
 20
153.7464478567873
 10
146.5499518132849
 20
153.7205603674683
 10
146.5468023038549
 20
153.6961236552033
 10
146.5442345357579
 20
153.6731472567353
 10
146.5421865201629
 20
153.6516407088073
 10
146.5406034207979
 20
153.6316159323483
 10
146.5394256330169
 20
153.6130800799163
 10
146.5385887838049
 20
153.5960438803463
 10
146.5380404210729
 20
153.5805180624753
 10
146.537716171805
 20
153.5665121630463
 10
146.537556431357
 20
153.5540369108943
 10
146.5375063634549
 20
153.5431006506713
 10
146.5375015950839
 20
153.5337141112123
  0
LWPOLYLINE
  5
71E
330
1F
100
AcDbEntity
  8
Sichtbare_Kanten_TC_020513_DIN_
  6
Continuous
 62
     7
100
AcDbPolyline
 90
       25
 70
     0
 43
0.5
 10
144.2207477307959
 20
155.3380718783173
 10
144.2008016324679
 20
155.3470006541043
 10
144.1808293080969
 20
155.3559282377993
 10
144.1608379102389
 20
155.3648558214933
 10
144.1408226705229
 20
155.3737834051873
 10
144.1207883573209
 20
155.3827097967893
 10
144.1007349706329
 20
155.3916373804833
 10
144.080660126273
 20
155.4005637720853
 10
144.060568592612
 20
155.4094913557793
 10
144.0404603696509
 20
155.4184177473813
 10
144.0203354573889
 20
155.4273453310763
 10
144.000193855826
 20
155.4362741068633
 10
143.9800355649629
 20
155.4452028826503
 10
143.9598677373569
 20
155.4541304663453
 10
143.9396879888219
 20
155.4630592421323
 10
143.9194987035429
 20
155.4719868258263
 10
143.8993022657079
 20
155.4809144095213
 10
143.8790962911289
 20
155.4898408011223
 10
143.8588831639929
 20
155.4987683848173
 10
143.8386628842989
 20
155.5076947764183
 10
143.8184402204199
 20
155.5166211680203
 10
143.7982104039829
 20
155.5255487517143
 10
143.7779758191749
 20
155.5344763354093
 10
143.7577412343659
 20
155.5434051111963
 10
143.737501881186
 20
155.5523326948913
  0
LWPOLYLINE
  5
71F
330
1F
100
AcDbEntity
  8
Sichtbare_Kanten_TC_020513_DIN_
  6
Continuous
 62
     7
100
AcDbPolyline
 90
       25
 70
     0
 43
0.5
 10
146.5375015950839
 20
154.4412866190703
 10
146.5374586797399
 20
154.4545617655543
 10
146.5373299337069
 20
154.4678369120393
 10
146.537117741171
 20
154.4811108664303
 10
146.5368173337619
 20
154.4943848208223
 10
146.53643347985
 20
154.5076575831203
 10
146.5359637952489
 20
154.5209315375123
 10
146.5354082799589
 20
154.5342054919033
 10
146.5347669339819
 20
154.5474782542023
 10
146.5340397573149
 20
154.5607522085933
 10
146.5332291341459
 20
154.5740261629853
 10
146.532332680289
 20
154.5873013094693
 10
146.531350395743
 20
154.6005752638613
 10
146.5302822805089
 20
154.6138504103453
 10
146.529128334586
 20
154.6271255568293
 10
146.52789094216
 20
154.6403995112213
 10
146.5265677190459
 20
154.6536734656123
 10
146.5251610494299
 20
154.6669462279113
 10
146.523666164939
 20
154.6802201823023
 10
146.5220878339449
 20
154.6934941366943
 10
146.5204260564489
 20
154.7067668989923
 10
146.5186760640779
 20
154.7200408533843
 10
146.516842625205
 20
154.7333148077753
 10
146.5149257398289
 20
154.7465899542603
 10
146.512923023764
 20
154.7598651007443
  0
LWPOLYLINE
  5
720
330
1F
100
AcDbEntity
  8
Sichtbare_Kanten_TC_020513_DIN_
  6
Continuous
 62
     7
100
AcDbPolyline
 90
       25
 70
     0
 43
0.5
 10
146.512923023764
 20
154.7598651007443
 10
146.5111730313939
 20
154.7712269381313
 10
146.508998653952
 20
154.7848394469053
 10
146.5062830663359
 20
154.8004284457003
 10
146.502914211814
 20
154.8177257136133
 10
146.4987824178379
 20
154.8364594534663
 10
146.4937684751189
 20
154.8563590601713
 10
146.487767479483
 20
154.8771551207333
 10
146.4806578374549
 20
154.8985746458803
 10
146.4723346448579
 20
154.9203482226163
 10
146.4626786924039
 20
154.9422052458553
 10
146.4515826917329
 20
154.9638751105103
 10
146.4389298177399
 20
154.9850872114923
 10
146.4246056295079
 20
155.0055697516233
 10
146.4085338330909
 20
155.0250115946563
 10
146.3910482144989
 20
155.0426986769463
 10
146.3722775197659
 20
155.0584629133973
 10
146.3522360540069
 20
155.0723174170283
 10
146.3309405065219
 20
155.0842788771423
 10
146.308405182425
 20
155.0943615988523
 10
146.2846443868319
 20
155.1025775030883
 10
146.259674809043
 20
155.1089432791503
 10
146.2335083699859
 20
155.1134720400603
 10
146.2061617589629
 20
155.1161780909333
 10
146.177649281088
 20
155.1170769289763
  0
LWPOLYLINE
  5
721
330
1F
100
AcDbEntity
  8
Sichtbare_Kanten_TC_020513_DIN_
  6
Continuous
 62
     7
100
AcDbPolyline
 90
       25
 70
     0
 43
0.5
 10
145.2299998021759
 20
155.1170769289763
 10
145.1822421765959
 20
155.1176157549653
 10
145.1339528775849
 20
155.1192358092103
 10
145.0851628995579
 20
155.1219418600823
 10
145.0359080053009
 20
155.1257386759553
 10
144.9862239576019
 20
155.1306286410123
 10
144.9361465192479
 20
155.1366177157193
 10
144.885704300467
 20
155.1437094763543
 10
144.8349378324189
 20
155.1519086912903
 10
144.7838781095189
 20
155.1612189368043
 10
144.7325918889679
 20
155.1716402128963
 10
144.6823404050509
 20
155.1829221800593
 10
144.633817455832
 20
155.1948359564573
 10
144.5871184087439
 20
155.2072456434993
 10
144.5423362470309
 20
155.2200177267823
 10
144.4995663381259
 20
155.2330174998073
 10
144.4589016652739
 20
155.2461102560793
 10
144.4204375959079
 20
155.2591624811913
 10
144.3842718816439
 20
155.2720382765563
 10
144.3504927373569
 20
155.2846041277673
 10
144.319197914664
 20
155.2967241362363
 10
144.2904827809969
 20
155.3082659796503
 10
144.2644403196019
 20
155.3190937594203
 10
144.2411635137239
 20
155.3290739611413
 10
144.2207477307959
 20
155.3380718783173
  0
LWPOLYLINE
  5
722
330
1F
100
AcDbEntity
  8
Sichtbare_Kanten_TC_020513_DIN_
  6
Continuous
 62
     7
100
AcDbPolyline
 90
       25
 70
     0
 43
0.5
 10
42.07305648094815
 20
142.9652342156203
 10
42.08361365563071
 20
142.9884162501123
 10
42.09373690849942
 20
143.0117770985393
 10
42.10343577629722
 20
143.0353102043893
 10
42.11270072228116
 20
143.0590096071983
 10
42.12153174645103
 20
143.0828699425493
 10
42.12992884880704
 20
143.1068846539293
 10
42.13788726097745
 20
143.1310477808743
 10
42.14540698296231
 20
143.1553539589673
 10
42.15248324639005
 20
143.1797966316973
 10
42.15911605126065
 20
143.2043698385983
 10
42.16530062920255
 20
143.2290676192073
 10
42.17104174858731
 20
143.2538846091063
 10
42.17632987267173
 20
143.2788017348083
 10
42.18116023308433
 20
143.3037999228263
 10
42.18553282982511
 20
143.3288744047913
 10
42.18944766289395
 20
143.3540174320963
 10
42.19290473229093
 20
143.3792236403253
 10
42.19590403801603
 20
143.4044864729673
 10
42.19844558006925
 20
143.4297993735103
 10
42.20052459007901
 20
143.4551563814903
 10
42.20214583641685
 20
143.4805515364433
 10
42.20329978233976
 20
143.5059776858123
 10
42.20399596459073
 20
143.5314294651773
 10
42.20422484642661
 20
143.5568997219833
  0
LWPOLYLINE
  5
723
330
1F
100
AcDbEntity
  8
Sichtbare_Kanten_TC_020513_DIN_
  6
Continuous
 62
     7
100
AcDbPolyline
 90
       25
 70
     0
 43
0.5
 10
43.60422827965421
 20
143.5568997219833
 10
43.60376574761075
 20
143.5059586123253
 10
43.60237338310874
 20
143.4550556496413
 10
43.60006072289151
 20
143.4042027548583
 10
43.59682299858731
 20
143.3534130409983
 10
43.59266497856773
 20
143.3026990250383
 10
43.58758666283292
 20
143.2520726279053
 10
43.58158805138272
 20
143.2015469626223
 10
43.57466914421714
 20
143.1511351422103
 10
43.56683947807944
 20
143.1008484915523
 10
43.55808951622642
 20
143.0507001236703
 10
43.54842879540122
 20
143.0007031515863
 10
43.53785731560392
 20
142.9508689001833
 10
43.52637984520597
 20
142.9012355164323
 10
43.51400592095054
 20
142.8518399552133
 10
43.50074031120933
 20
142.8026935414103
 10
43.48658301598233
 20
142.7538081959513
 10
43.47154834038413
 20
142.7051961377893
 10
43.45563151604331
 20
142.6568695858743
 10
43.43883731133145
 20
142.6088398650913
 10
43.42117526299155
 20
142.5611194924143
 10
43.40264537102384
 20
142.5137203887733
 10
43.38325240379972
 20
142.4666541770723
 10
43.36299636131925
 20
142.4199330762653
 10
43.34188678032554
 20
142.3735687092573
  0
LWPOLYLINE
  5
724
330
1F
100
AcDbEntity
  8
Sichtbare_Kanten_TC_020513_DIN_
  6
Continuous
 62
     7
100
AcDbPolyline
 90
       25
 70
     0
 43
0.5
 10
42.12182261711753
 20
154.0069380358483
 10
42.09587790733976
 20
154.0737453058983
 10
42.06661441094083
 20
154.1390088156493
 10
42.03409411675132
 20
154.2026081637173
 10
41.99840285545982
 20
154.2644241408143
 10
41.95961215264005
 20
154.3243375376493
 10
41.91778876549405
 20
154.3822291449343
 10
41.87301375633872
 20
154.4379797533783
 10
41.82535865074796
 20
154.4914689615993
 10
41.77499034172696
 20
154.5424869612483
 10
41.72218539482755
 20
154.5907643393313
 10
41.66706301933921
 20
154.6362164572503
 10
41.60974242455161
 20
154.6787646368773
 10
41.55033805138272
 20
154.7183290079863
 10
41.48896910912193
 20
154.7548320845393
 10
41.42574527031583
 20
154.7881928042203
 10
41.36078097588224
 20
154.8183336809903
 10
41.29427172905606
 20
154.8451462343963
 10
41.22659899956382
 20
154.8684802607323
 10
41.15792014366782
 20
154.8882988051203
 10
41.08836867577232
 20
154.9045756415163
 10
41.01808764702481
 20
154.9172833517823
 10
40.94721057182944
 20
154.9263933256893
 10
40.87587573296231
 20
154.9318793371943
 10
40.80422618157071
 20
154.9337139681603
  0
LWPOLYLINE
  5
725
330
1F
100
AcDbEntity
  8
Sichtbare_Kanten_TC_020513_DIN_
  6
Continuous
 62
     7
100
AcDbPolyline
 90
       25
 70
     0
 43
0.5
 10
40.80422618157071
 20
156.3337138251093
 10
40.91755606896085
 20
156.3314202383783
 10
41.03051879173911
 20
156.3245549753933
 10
41.14297606712974
 20
156.3131466463833
 10
41.25479914910001
 20
156.2972226694853
 10
41.36584975487394
 20
156.2768092707423
 10
41.47599437004722
 20
156.2519350603853
 10
41.58508994347251
 20
156.2226274565493
 10
41.69300296074552
 20
156.1889126852783
 10
41.79959990746183
 20
156.1508181647093
 10
41.90473773247403
 20
156.1083748892573
 10
42.00801112419767
 20
156.0617390230923
 10
42.10915782219571
 20
156.0110416964323
 10
42.20807292229331
 20
155.9563615874083
 10
42.30462767845792
 20
155.8977761820583
 10
42.39871718651456
 20
155.8353629664213
 10
42.49022700554532
 20
155.7692006186273
 10
42.57903792626065
 20
155.6993666247163
 10
42.66503073937095
 20
155.6259372786313
 10
42.74810054070152
 20
155.5489936426903
 10
42.82811381584806
 20
155.4686263159543
 10
42.90477969414395
 20
155.3851118639733
 10
42.97796942955655
 20
155.2986088351043
 10
43.04758288628263
 20
155.2092280939843
 10
43.11354853874845
 20
155.1170769289763
  0
LWPOLYLINE
  5
726
330
1F
100
AcDbEntity
  8
Sichtbare_Kanten_TC_020513_DIN_
  6
Continuous
 62
     7
100
AcDbPolyline
 90
       25
 70
     0
 43
0.5
 10
42.20422484642661
 20
153.5337141112123
 10
42.20422484642661
 20
153.5431006506713
 10
42.20417239433921
 20
153.5540369108943
 10
42.20401503807706
 20
153.5665121630463
 10
42.20369078880943
 20
153.5805180624753
 10
42.20313765770597
 20
153.5960438803463
 10
42.20230319267905
 20
153.6130800799163
 10
42.20112540489835
 20
153.6316159323483
 10
42.19954230553311
 20
153.6516407088073
 10
42.19749667412442
 20
153.6731472567353
 10
42.19492652184171
 20
153.6961236552033
 10
42.19177462822593
 20
153.7205603674683
 10
42.18798377281821
 20
153.7464478567873
 10
42.18350150353116
 20
153.7736943320063
 10
42.17849471337003
 20
153.8007369593413
 10
42.17310645348233
 20
153.8269057825833
 10
42.16741778618491
 20
153.8521054343013
 10
42.16152407890952
 20
153.8762345865993
 10
42.15551116234464
 20
153.8991954878603
 10
42.14946963555015
 20
153.9208915785583
 10
42.14348056084312
 20
153.9412227228913
 10
42.13762976891202
 20
153.9600911692413
 10
42.13201739555991
 20
153.9773991659913
 10
42.12671496636075
 20
153.9930465773373
 10
42.12182261711753
 20
154.0069380358483
  0
LWPOLYLINE
  5
727
330
1F
100
AcDbEntity
  8
Sichtbare_Kanten_TC_020513_DIN_
  6
Continuous
 62
     7
100
AcDbPolyline
 90
       25
 70
     0
 43
0.5
 10
42.56407954460782
 20
155.1170769289763
 10
42.53846385246915
 20
155.1163533285883
 10
42.51378276116056
 20
155.1141753748683
 10
42.49004103905362
 20
155.1105323389803
 10
42.46724822289151
 20
155.1054158762723
 10
42.44542815453214
 20
155.0988140658173
 10
42.42458083397544
 20
155.0907197550563
 10
42.40472533470792
 20
155.0811222151543
 10
42.38587596184415
 20
155.0700107172753
 10
42.36804225212735
 20
155.0573769167693
 10
42.35123374230064
 20
155.0432112768913
 10
42.33546950585044
 20
155.0275006846223
 10
42.32073046929044
 20
155.0102224901943
 10
42.30701663262052
 20
154.9913504675653
 10
42.29430415398282
 20
154.9708595827843
 10
42.28258826500571
 20
154.9487283781793
 10
42.27185466057462
 20
154.9249306277063
 10
42.26237990624112
 20
154.9003604010373
 10
42.25433566338224
 20
154.8761299208433
 10
42.24759795433683
 20
154.8526313856873
 10
42.24202849632901
 20
154.8302581862243
 10
42.23749377495444
 20
154.8094037131103
 10
42.23386981255216
 20
154.7904577807213
 10
42.23101832634605
 20
154.7738137797143
 10
42.22880580193204
 20
154.7598651007443
  0
LWPOLYLINE
  5
728
330
1F
100
AcDbEntity
  8
Sichtbare_Kanten_TC_020513_DIN_
  6
Continuous
 62
     7
100
AcDbPolyline
 90
       25
 70
     0
 43
0.5
 10
42.22880580193204
 20
154.7598651007443
 10
42.22680308586753
 20
154.7465899542603
 10
42.22488620049155
 20
154.7333148077753
 10
42.22305037743253
 20
154.7200408533843
 10
42.22130515343345
 20
154.7067668989923
 10
42.21964099175132
 20
154.6934941366943
 10
42.21806266075772
 20
154.6802201823023
 10
42.21657016045255
 20
154.6669462279113
 10
42.21515872246421
 20
154.6536734656123
 10
42.21383788353604
 20
154.6403995112213
 10
42.21259810692472
 20
154.6271255568293
 10
42.21144416100186
 20
154.6138504103453
 10
42.21038081413902
 20
154.6005752638613
 10
42.20939376122153
 20
154.5873013094693
 10
42.20849730736411
 20
154.5740261629853
 10
42.20768668419522
 20
154.5607522085933
 10
42.20696189171476
 20
154.5474782542023
 10
42.20632292992276
 20
154.5342054919033
 10
42.20576503044767
 20
154.5209315375123
 10
42.20529296166104
 20
154.5076575831203
 10
42.20491149193443
 20
154.4943848208223
 10
42.20461108452481
 20
154.4811108664303
 10
42.20439650780362
 20
154.4678369120393
 10
42.20426776177091
 20
154.4545617655543
 10
42.20422484642661
 20
154.4412866190703
  0
LWPOLYLINE
  5
729
330
1F
100
AcDbEntity
  8
Sichtbare_Kanten_TC_020513_DIN_
  6
Continuous
 62
     7
100
AcDbPolyline
 90
       25
 70
     0
 43
0.5
 10
45.00422694451017
 20
155.5523326948913
 10
44.98398997551603
 20
155.5434051111963
 10
44.96375300652183
 20
155.5344763354093
 10
44.94351603752774
 20
155.5255487517143
 10
44.92328860527671
 20
155.5166211680203
 10
44.90306594139732
 20
155.5076947764183
 10
44.88284327751792
 20
155.4987683848173
 10
44.86263491875333
 20
155.4898408011223
 10
44.84242655998862
 20
155.4809144095213
 10
44.82222773796714
 20
155.4719868258263
 10
44.80203845268882
 20
155.4630592421323
 10
44.78185870415372
 20
155.4541304663453
 10
44.76169326073325
 20
155.4452028826503
 10
44.74153735405606
 20
155.4362741068633
 10
44.72139575249356
 20
155.4273453310763
 10
44.70126845604575
 20
155.4184177473813
 10
44.68116023308433
 20
155.4094913557793
 10
44.66106631523765
 20
155.4005637720853
 10
44.64099623924894
 20
155.3916373804833
 10
44.62094046837486
 20
155.3827097967893
 10
44.60090377098722
 20
155.3737834051873
 10
44.58089091545743
 20
155.3648558214933
 10
44.56089713341392
 20
155.3559282377993
 10
44.54092719322843
 20
155.3470006541043
 10
44.52098109490073
 20
155.3380718783173
  0
LWPOLYLINE
  5
72A
330
1F
100
AcDbEntity
  8
Sichtbare_Kanten_TC_020513_DIN_
  6
Continuous
 62
     7
100
AcDbPolyline
 90
       25
 70
     0
 43
0.5
 10
44.52098109490073
 20
155.3380718783173
 10
44.50049140221286
 20
155.3290417746333
 10
44.47713591820401
 20
155.3190281943113
 10
44.45100524193443
 20
155.3081646517543
 10
44.42219474083585
 20
155.2965894297393
 10
44.39080455071134
 20
155.2844336584833
 10
44.35692527062095
 20
155.2718368128573
 10
44.32064749962486
 20
155.2589300230773
 10
44.28207614189786
 20
155.2458515719203
 10
44.24129702812833
 20
155.2327361658843
 10
44.19841029411954
 20
155.2197173193723
 10
44.15350653893155
 20
155.2069321230683
 10
44.10668589836753
 20
155.1945140913753
 10
44.05803897148765
 20
155.1826003149773
 10
44.00766112572354
 20
155.1713255003723
 10
43.95650603539151
 20
155.1609590605523
 10
43.90560366875333
 20
155.1517024592193
 10
43.85499217278165
 20
155.1435521200923
 10
43.80470969444913
 20
155.1365008906153
 10
43.75478484398526
 20
155.1305475786953
 10
43.70525099999112
 20
155.1256862238673
 10
43.65614154106773
 20
155.1219132498533
 10
43.60749938255943
 20
155.1192238882813
 10
43.55934836632413
 20
155.1176133707793
 10
43.51172663933433
 20
155.1170769289763
  0
LWPOLYLINE
  5
72B
330
1F
100
AcDbEntity
  8
Sichtbare_Kanten_TC_020513_DIN_
  6
Continuous
 62
     7
100
AcDbPolyline
 90
       25
 70
     0
 43
0.5
 10
243.69871228989
 20
142.9652342156203
 10
243.7085399037209
 20
142.9884162501123
 10
243.718363941273
 20
143.0117770985393
 10
243.7281855946389
 20
143.0353102043893
 10
243.7380036717259
 20
143.0590096071983
 10
243.747820556721
 20
143.0828699425493
 10
243.7576374417149
 20
143.1068846539293
 10
243.7674531346169
 20
143.1310477808743
 10
243.7772700196119
 20
143.1553539589673
 10
243.7870880966989
 20
143.1797966316973
 10
243.7969097500649
 20
143.2043698385983
 10
243.806733787617
 20
143.2290676192073
 10
243.81656259354
 20
143.2538846091063
 10
243.826390207371
 20
143.2788017348083
 10
243.8362142449229
 20
143.3037999228263
 10
243.846035898289
 20
143.3288744047913
 10
243.8558539753759
 20
143.3540174320963
 10
243.8656708603709
 20
143.3792236403253
 10
243.8754877453649
 20
143.4044864729673
 10
243.885303438267
 20
143.4297993735103
 10
243.8951203232609
 20
143.4551563814903
 10
243.9049384003489
 20
143.4805515364433
 10
243.914760053715
 20
143.5059776858123
 10
243.9245840912669
 20
143.5314294651773
 10
243.934411705097
 20
143.5568997219833
  0
LWPOLYLINE
  5
72C
330
1F
100
AcDbEntity
  8
Sichtbare_Kanten_TC_020513_DIN_
  6
Continuous
 62
     7
100
AcDbPolyline
 90
       25
 70
     0
 43
0.5
 10
243.934411705097
 20
143.5568997219833
 10
243.9245840912669
 20
143.5059586123253
 10
243.914760053715
 20
143.4550556496413
 10
243.9049384003489
 20
143.4042027548583
 10
243.895120323262
 20
143.3534130409983
 10
243.885303438267
 20
143.3026990250383
 10
243.8754877453659
 20
143.2520726279053
 10
243.8656708603709
 20
143.2015469626223
 10
243.8558539753769
 20
143.1511351422103
 10
243.846035898289
 20
143.1008484915523
 10
243.8362142449229
 20
143.0507001236703
 10
243.826390207371
 20
143.0007031515863
 10
243.8165625935409
 20
142.9508689001833
 10
243.806733787617
 20
142.9012355164323
 10
243.7969097500649
 20
142.8518399552133
 10
243.7870880966989
 20
142.8026935414103
 10
243.7772700196119
 20
142.7538081959513
 10
243.7674531346169
 20
142.7051961377893
 10
243.7576374417159
 20
142.6568695858743
 10
243.747820556721
 20
142.6088398650913
 10
243.7380036717269
 20
142.5611194924143
 10
243.7281855946389
 20
142.5137203887733
 10
243.718363941273
 20
142.4666541770723
 10
243.7085399037209
 20
142.4199330762653
 10
243.698712289891
 20
142.3735687092573
  0
LWPOLYLINE
  5
72D
330
1F
100
AcDbEntity
  8
Sichtbare_Kanten_TC_020513_DIN_
  6
Continuous
 62
     7
100
AcDbPolyline
 90
       25
 70
     0
 43
0.5
 10
250.3841266041609
 20
155.1170769289763
 10
250.3375586872909
 20
155.1163533285883
 10
250.2905544644209
 20
155.1141753748683
 10
250.2431759243819
 20
155.1105323389803
 10
250.1954850560039
 20
155.1054158762723
 10
250.147543848118
 20
155.0988140658173
 10
250.099416673741
 20
155.0907197550563
 10
250.0511607533299
 20
155.0811222151543
 10
250.002840459904
 20
155.0700107172753
 10
249.9545177822919
 20
155.0573769167693
 10
249.9062547093239
 20
155.0432112768913
 10
249.858115614018
 20
155.0275006846223
 10
249.8101934796179
 20
155.0102224901943
 10
249.7625884419289
 20
154.9913504675653
 10
249.7153911000099
 20
154.9708595827843
 10
249.6686944371069
 20
154.9487283781793
 10
249.6225962048379
 20
154.9249306277063
 10
249.5788010960429
 20
154.9003604010373
 10
249.5388683682289
 20
154.8761299208433
 10
249.5028051739539
 20
154.8526313856873
 10
249.4706329708899
 20
154.8302581862243
 10
249.442363679966
 20
154.8094037131103
 10
249.418009222111
 20
154.7904577807213
 10
249.397591054997
 20
154.7738137797143
 10
249.3811187153669
 20
154.7598651007443
  0
LWPOLYLINE
  5
72E
330
1F
100
AcDbEntity
  8
Sichtbare_Kanten_TC_020513_DIN_
  6
Continuous
 62
     7
100
AcDbPolyline
 90
       25
 70
     0
 43
0.5
 10
249.1960248356669
 20
154.7598651007443
 10
249.2032536869859
 20
154.7721436575683
 10
249.2118749028059
 20
154.7862902239593
 10
249.221890867314
 20
154.8020806864533
 10
249.2333015805099
 20
154.8192933157713
 10
249.246107042393
 20
154.8377028063563
 10
249.260312021336
 20
154.8570850447443
 10
249.2759141331529
 20
154.8772183016573
 10
249.292915762028
 20
154.8978772715363
 10
249.3113192921489
 20
154.9188378409173
 10
249.3311247235149
 20
154.9398782805233
 10
249.3523320561259
 20
154.9607744768883
 10
249.3749436741679
 20
154.9813011244563
 10
249.3989381199689
 20
155.0012186125543
 10
249.4238218670699
 20
155.0199904993803
 10
249.4493755703779
 20
155.0373867110043
 10
249.475561082921
 20
155.0533214167383
 10
249.5023331051679
 20
155.0677052096153
 10
249.529648721776
 20
155.0804510668543
 10
249.557443559727
 20
155.0914624289303
 10
249.5854291325419
 20
155.1005795553953
 10
249.6134909993029
 20
155.1077392653253
 10
249.6415671711779
 20
155.1129022196563
 10
249.6696004277079
 20
155.1160278872283
 10
249.6975287800639
 20
155.1170769289763
  0
LWPOLYLINE
  5
72F
330
1F
100
AcDbEntity
  8
Sichtbare_Kanten_TC_020513_DIN_
  6
Continuous
 62
     7
100
AcDbPolyline
 90
       25
 70
     0
 43
0.5
 10
249.3811187153669
 20
154.7598651007443
 10
249.365776479801
 20
154.7465899542603
 10
249.3504270916789
 20
154.7333148077753
 10
249.3350657826269
 20
154.7200408533843
 10
249.3196949368329
 20
154.7067668989923
 10
249.3043145542949
 20
154.6934941366943
 10
249.2889270192
 20
154.6802201823023
 10
249.2735299473609
 20
154.6669462279113
 10
249.2581257229649
 20
154.6536734656123
 10
249.2427119618269
 20
154.6403995112213
 10
249.227293432316
 20
154.6271255568293
 10
249.2118653660619
 20
154.6138504103453
 10
249.1964301472509
 20
154.6005752638613
 10
249.180992544255
 20
154.5873013094693
 10
249.1655477886999
 20
154.5740261629853
 10
249.1500982647739
 20
154.5607522085933
 10
249.134646356663
 20
154.5474782542023
 10
249.1191896801799
 20
154.5342054919033
 10
249.1037306195109
 20
154.5209315375123
 10
249.0882691746559
 20
154.5076575831203
 10
249.072805345616
 20
154.4943848208223
 10
249.057339132389
 20
154.4811108664303
 10
249.041870534977
 20
154.4678369120393
 10
249.026399553379
 20
154.4545617655543
 10
249.0109285717809
 20
154.4412866190703
  0
LWPOLYLINE
  5
730
330
1F
100
AcDbEntity
  8
Sichtbare_Kanten_TC_020513_DIN_
  6
Continuous
 62
     7
100
AcDbPolyline
 90
       25
 70
     0
 43
0.5
 10
249.0109285717809
 20
154.4412866190703
 10
249.0186652546739
 20
154.4545617655543
 10
249.02639955338
 20
154.4678369120393
 10
249.0341338520859
 20
154.4811108664303
 10
249.0418681507919
 20
154.4943848208223
 10
249.0496000653119
 20
154.5076575831203
 10
249.0573295956469
 20
154.5209315375123
 10
249.065059125981
 20
154.5342054919033
 10
249.0727886563159
 20
154.5474782542023
 10
249.080513418278
 20
154.5607522085933
 10
249.0882381802409
 20
154.5740261629853
 10
249.095960558018
 20
154.5873013094693
 10
249.10368055161
 20
154.6005752638613
 10
249.1113981610149
 20
154.6138504103453
 10
249.119111002049
 20
154.6271255568293
 10
249.1268214588969
 20
154.6403995112213
 10
249.1345271473739
 20
154.6536734656123
 10
249.1422304516649
 20
154.6669462279113
 10
249.149928987584
 20
154.6802201823023
 10
249.1576227551309
 20
154.6934941366943
 10
249.1653117543069
 20
154.7067668989923
 10
249.1729983692979
 20
154.7200408533843
 10
249.1806778317299
 20
154.7333148077753
 10
249.1883525257919
 20
154.7465899542603
 10
249.1960248356669
 20
154.7598651007443
  0
LWPOLYLINE
  5
731
330
1F
100
AcDbEntity
  8
Sichtbare_Kanten_TC_020513_DIN_
  6
Continuous
 62
     7
100
AcDbPolyline
 90
       25
 70
     0
 43
0.5
 10
251.8109306698659
 20
155.5523326948913
 10
251.8108567601059
 20
155.5434051111963
 10
251.8106374150129
 20
155.5344763354093
 10
251.8102702504019
 20
155.5255487517143
 10
251.809760034642
 20
155.5166211680203
 10
251.8091019993639
 20
155.5076947764183
 10
251.8082961445659
 20
155.4987683848173
 10
251.8073472386219
 20
155.4898408011223
 10
251.8062505131579
 20
155.4809144095213
 10
251.8050083523609
 20
155.4719868258263
 10
251.8036207562299
 20
155.4630592421323
 10
251.8020853405809
 20
155.4541304663453
 10
251.8004044895979
 20
155.4452028826503
 10
251.7985805874679
 20
155.4362741068633
 10
251.7966088658189
 20
155.4273453310763
 10
251.794491708837
 20
155.4184177473813
 10
251.792229116521
 20
155.4094913557793
 10
251.7898210888719
 20
155.4005637720853
 10
251.787270010076
 20
155.3916373804833
 10
251.7845711117599
 20
155.3827097967893
 10
251.781729162297
 20
155.3737834051873
 10
251.778741777501
 20
155.3648558214933
 10
251.7756113415569
 20
155.3559282377993
 10
251.7723330860949
 20
155.3470006541043
 10
251.7689117794849
 20
155.3380718783173
  0
LWPOLYLINE
  5
732
330
1F
100
AcDbEntity
  8
Sichtbare_Kanten_TC_020513_DIN_
  6
Continuous
 62
     7
100
AcDbPolyline
 90
       25
 70
     0
 43
0.5
 10
250.3899201756329
 20
155.3380718783173
 10
250.3916320210309
 20
155.3470006541043
 10
250.3932699566699
 20
155.3559282377993
 10
250.3948363667339
 20
155.3648558214933
 10
250.3963288670399
 20
155.3737834051873
 10
250.3977498417709
 20
155.3827097967893
 10
250.3990992909289
 20
155.3916373804833
 10
250.4003748303269
 20
155.4005637720853
 10
250.4015788441519
 20
155.4094913557793
 10
250.402711332402
 20
155.4184177473813
 10
250.4037699108939
 20
155.4273453310763
 10
250.4047545796249
 20
155.4362741068633
 10
250.4056677227829
 20
155.4452028826503
 10
250.4065069561819
 20
155.4541304663453
 10
250.407274664006
 20
155.4630592421323
 10
250.4079684620709
 20
155.4719868258263
 10
250.408590734563
 20
155.4809144095213
 10
250.4091390972949
 20
155.4898408011223
 10
250.409613550267
 20
155.4987683848173
 10
250.4100164776659
 20
155.5076947764183
 10
250.4103454953049
 20
155.5166211680203
 10
250.4106006031849
 20
155.5255487517143
 10
250.4107841854909
 20
155.5344763354093
 10
250.410893858037
 20
155.5434051111963
 10
250.4109296208239
 20
155.5523326948913
  0
LWPOLYLINE
  5
733
330
1F
100
AcDbEntity
  8
Sichtbare_Kanten_TC_020513_DIN_
  6
Continuous
 62
     7
100
AcDbPolyline
 90
       25
 70
     0
 43
0.5
 10
251.7689117794849
 20
155.3380718783173
 10
251.765273511968
 20
155.3290417746333
 10
251.7609629040569
 20
155.3190281943113
 10
251.7559036618089
 20
155.3081646517543
 10
251.7500147229049
 20
155.2965894297393
 10
251.7432126408429
 20
155.2844336584833
 10
251.735416353307
 20
155.2718368128573
 10
251.7265471821639
 20
155.2589300230773
 10
251.716524065099
 20
155.2458515719203
 10
251.705263555608
 20
155.2327361658843
 10
251.6926845913739
 20
155.2197173193723
 10
251.678708494267
 20
155.2069321230683
 10
251.66325420197
 20
155.1945140913753
 10
251.6462382679789
 20
155.1826003149773
 10
251.6275796299789
 20
155.1713255003723
 10
251.6075143223619
 20
155.1609590605523
 10
251.5863808995099
 20
155.1517024592193
 10
251.5641865139809
 20
155.1435521200923
 10
251.5409430867049
 20
155.1365008906153
 10
251.5166577702379
 20
155.1305475786953
 10
251.491344869694
 20
155.1256862238673
 10
251.4650115376329
 20
155.1219132498533
 10
251.437667310795
 20
155.1192238882813
 10
251.4093241101119
 20
155.1176133707793
 10
251.3799890881389
 20
155.1170769289763
  0
LWPOLYLINE
  5
734
330
1F
100
AcDbEntity
  8
Sichtbare_Kanten_TC_020513_DIN_
  6
Continuous
 62
     7
100
AcDbPolyline
 90
       25
 70
     0
 43
0.5
 10
250.1954588299609
 20
155.1170769289763
 10
250.2097257977339
 20
155.1175859526423
 10
250.223473013005
 20
155.1191070631773
 10
250.2367004757739
 20
155.1216295317443
 10
250.2494081860399
 20
155.1251414374143
 10
250.2615937596179
 20
155.1296344355373
 10
250.273259580693
 20
155.1350977972773
 10
250.284405649266
 20
155.1415184096123
 10
250.295031965337
 20
155.1488891199853
 10
250.3051361447189
 20
155.1571968153743
 10
250.3147086506699
 20
155.1664200381073
 10
250.3237184887739
 20
155.1765039519103
 10
250.3321799641469
 20
155.1874211386473
 10
250.3401049977159
 20
155.1991477564603
 10
250.3475078945969
 20
155.2116635397703
 10
250.3544029599049
 20
155.2249434546263
 10
250.360771120152
 20
155.2388718680173
 10
250.3664454823349
 20
155.2529087618623
 10
250.3714498883099
 20
155.2668216780453
 10
250.3758272534229
 20
155.2804389551903
 10
250.3796228772019
 20
155.2935889319213
 10
250.3828844433639
 20
155.3060999468593
 10
250.385659635625
 20
155.3177991465363
 10
250.3879889851429
 20
155.3285136774813
 10
250.3899201756329
 20
155.3380718783173
  0
LWPOLYLINE
  5
735
330
1F
100
AcDbEntity
  8
Sichtbare_Kanten_TC_020513_DIN_
  6
Continuous
 62
     7
100
AcDbPolyline
 90
       25
 70
     0
 43
0.5
 10
243.095403612217
 20
154.0069380358483
 10
243.067747057041
 20
154.0737453058983
 10
243.0401465302319
 20
154.1390088156493
 10
243.0125817662089
 20
154.2026081637173
 10
242.985038459858
 20
154.2644241408143
 10
242.9574951535069
 20
154.3243375376493
 10
242.9299363499489
 20
154.3822291449343
 10
242.9023429756969
 20
154.4379797533783
 10
242.874697149357
 20
154.4914689615993
 10
242.8470310574379
 20
154.5424869612483
 10
242.8194221859779
 20
154.5907643393313
 10
242.791852653584
 20
154.6362164572503
 10
242.7643069630469
 20
154.6787646368773
 10
242.7367648487889
 20
154.7183290079863
 10
242.7092096215099
 20
154.7548320845393
 10
242.681623399815
 20
154.7881928042203
 10
242.653988302311
 20
154.8183336809903
 10
242.626316249927
 20
154.8451462343963
 10
242.5986930733529
 20
154.8684802607323
 10
242.5711080437509
 20
154.8882988051203
 10
242.543544471821
 20
154.9045756415163
 10
242.5159844761689
 20
154.9172833517823
 10
242.4884089833109
 20
154.9263933256893
 10
242.460801303943
 20
154.9318793371943
 10
242.433142364582
 20
154.9337139681603
  0
LWPOLYLINE
  5
736
330
1F
100
AcDbEntity
  8
Sichtbare_Kanten_TC_020513_DIN_
  6
Continuous
 62
     7
100
AcDbPolyline
 90
       25
 70
     0
 43
0.5
 10
242.433142364582
 20
156.3337138251093
 10
242.4607726937139
 20
156.3300517157343
 10
242.488351762852
 20
156.3191035345823
 10
242.5158962612949
 20
156.3009217337403
 10
242.543425262531
 20
156.2755635336663
 10
242.5709566479529
 20
156.2430837706353
 10
242.5985071068609
 20
156.2035360888273
 10
242.6260957127419
 20
156.1569789007933
 10
242.6537367707099
 20
156.1034718111783
 10
242.6813539868199
 20
156.0432925776273
 10
242.7089235192149
 20
155.9766760424403
 10
242.7364632492869
 20
155.9037783697873
 10
242.76399105843
 20
155.8247569159303
 10
242.7915248280369
 20
155.7397666529443
 10
242.819082439503
 20
155.6489673212793
 10
242.8466829663129
 20
155.5525138930113
 10
242.8743311768379
 20
155.4506066397453
 10
242.9019662743419
 20
155.3437343195703
 10
242.9295882588239
 20
155.2321746901303
 10
242.9572173958629
 20
155.1161482886103
 10
242.9848679905739
 20
154.9958851889403
 10
243.0125078564499
 20
154.8718431547913
 10
243.040132225117
 20
154.7443726614743
 10
243.0677577858779
 20
154.6137276247773
 10
243.095403612217
 20
154.4801607683923
  0
LWPOLYLINE
  5
737
330
1F
100
AcDbEntity
  8
Sichtbare_Kanten_TC_020513_DIN_
  6
Continuous
 62
     7
100
AcDbPolyline
 90
       25
 70
     0
 43
0.5
 10
243.5068318253369
 20
153.5337141112123
 10
243.4929248696179
 20
153.5431006506713
 10
243.4771654015389
 20
153.5540369108943
 10
243.4597477322429
 20
153.5665121630463
 10
243.4408661728709
 20
153.5805180624753
 10
243.4207162266579
 20
153.5960438803463
 10
243.3994933968389
 20
153.6130800799163
 10
243.3773908024639
 20
153.6316159323483
 10
243.3546051388589
 20
153.6516407088073
 10
243.3313307171669
 20
153.6731472567353
 10
243.3077630406229
 20
153.6961236552033
 10
243.2840976124609
 20
153.7205603674683
 10
243.2605275517309
 20
153.7464478567873
 10
243.2373127346839
 20
153.7736943320063
 10
243.215769231877
 20
153.8007369593413
 10
243.1962701683849
 20
153.8269057825833
 10
243.1787118321269
 20
153.8521054343013
 10
243.1629881268349
 20
153.8762345865993
 10
243.148991764149
 20
153.8991954878603
 10
243.1366190319859
 20
153.9208915785583
 10
243.12576383408
 20
153.9412227228913
 10
243.116320074162
 20
153.9600911692413
 10
243.1081828480569
 20
153.9773991659913
 10
243.101246059498
 20
153.9930465773373
 10
243.095403612217
 20
154.0069380358483
  0
LWPOLYLINE
  5
738
330
1F
100
AcDbEntity
  8
Sichtbare_Kanten_TC_020513_DIN_
  6
Continuous
 62
     7
100
AcDbPolyline
 90
       25
 70
     0
 43
0.5
 10
243.095403612217
 20
154.4801607683923
 10
243.112309873662
 20
154.4034889296323
 10
243.1304129963729
 20
154.3312445238863
 10
243.1493970757339
 20
154.2634478167323
 10
243.168942630849
 20
154.2001154974733
 10
243.1887361412859
 20
154.1412690237793
 10
243.2084581261489
 20
154.0869286612303
 10
243.2277926808209
 20
154.0371122912193
 10
243.2464393978929
 20
153.9918044165403
 10
243.26496094521
 20
153.9492240504053
 10
243.2836923008769
 20
153.9083793715273
 10
243.3025249844399
 20
153.8692989901333
 10
243.3213493233529
 20
153.8320079401763
 10
243.3400556450699
 20
153.7965336397913
 10
243.3585342770429
 20
153.7629011229303
 10
243.3766779309129
 20
153.7311366156373
 10
243.394375742039
 20
153.7012687281403
 10
243.4115204220619
 20
153.6733213022973
 10
243.4279999142499
 20
153.6473229483393
 10
243.443708122334
 20
153.6232987002163
 10
243.458532989583
 20
153.6012747839723
 10
243.4723672276349
 20
153.5812774256493
 10
243.4851011639449
 20
153.5633352354793
 10
243.4966251259659
 20
153.5474708632263
 10
243.5068318253369
 20
153.5337141112123
  0
LWPOLYLINE
  5
739
330
1F
100
AcDbEntity
  8
Sichtbare_Kanten_TC_020513_DIN_
  6
Continuous
 62
     7
100
AcDbPolyline
 90
       25
 70
     0
 43
0.5
 10
212.515027225575
 20
153.5337141112123
 10
212.525233924946
 20
153.5474708632263
 10
212.5367578869669
 20
153.5633352354793
 10
212.5494918232769
 20
153.5812774256493
 10
212.5633260613299
 20
153.6012747839723
 10
212.5781509285779
 20
153.6232987002163
 10
212.5938591366619
 20
153.6473229483393
 10
212.61033862885
 20
153.6733213022973
 10
212.6274833088729
 20
153.7012687281403
 10
212.64518112
 20
153.7311366156373
 10
212.6633247738689
 20
153.7629011229303
 10
212.681803405842
 20
153.7965336397913
 10
212.7005097275589
 20
153.8320079401763
 10
212.7193340664719
 20
153.8692989901333
 10
212.7381667500349
 20
153.9083793715273
 10
212.7568981057019
 20
153.9492240504053
 10
212.775419653019
 20
153.9918044165403
 10
212.794066370091
 20
154.0371122912193
 10
212.813400924763
 20
154.0869286612303
 10
212.8331229096269
 20
154.1412690237793
 10
212.8529164200639
 20
154.2001154974733
 10
212.8724619751779
 20
154.2634478167323
 10
212.891446054539
 20
154.3312445238863
 10
212.9095491772509
 20
154.4034889296323
 10
212.9264554386949
 20
154.4801607683923
  0
LWPOLYLINE
  5
73A
330
1F
100
AcDbEntity
  8
Sichtbare_Kanten_TC_020513_DIN_
  6
Continuous
 62
     7
100
AcDbPolyline
 90
       25
 70
     0
 43
0.5
 10
212.9264554386949
 20
154.4801607683923
 10
212.9540857678269
 20
154.6136513308313
 10
212.9816648369639
 20
154.7440758303433
 10
213.009209335408
 20
154.8711946562563
 10
213.0367383366439
 20
154.9947681978973
 10
213.0642697220649
 20
155.1145556525023
 10
213.0918201809739
 20
155.2303197935853
 10
213.1194087868539
 20
155.3418186262873
 10
213.1470498448219
 20
155.4487994269163
 10
213.174667060933
 20
155.5506804541383
 10
213.2022354012339
 20
155.6471303061273
 10
213.2297751313059
 20
155.7379832819733
 10
213.2573041325419
 20
155.8230736807613
 10
213.2848379021489
 20
155.9022358015803
 10
213.3123955136149
 20
155.9753063277033
 10
213.3399960404239
 20
156.0421195582183
 10
213.3676442509499
 20
156.1024859503533
 10
213.3952793484539
 20
156.1560991362363
 10
213.4229013329349
 20
156.2028327540193
 10
213.450530469974
 20
156.2425962046413
 10
213.4781810646859
 20
156.2752988890443
 10
213.505820930561
 20
156.3008096770083
 10
213.5334441071359
 20
156.3190701559813
 10
213.5610708599889
 20
156.3300481394563
 10
213.5887166863289
 20
156.3337138251093
  0
LWPOLYLINE
  5
73B
330
1F
100
AcDbEntity
  8
Sichtbare_Kanten_TC_020513_DIN_
  6
Continuous
 62
     7
100
AcDbPolyline
 90
       25
 70
     0
 43
0.5
 10
212.9264554386939
 20
154.0069380358483
 10
212.9206129914129
 20
153.9930465773373
 10
212.9136762028539
 20
153.9773991659913
 10
212.9055389767499
 20
153.9600911692413
 10
212.8960952168309
 20
153.9412227228913
 10
212.885240018925
 20
153.9208915785583
 10
212.8728672867619
 20
153.8991954878603
 10
212.8588709240759
 20
153.8762345865993
 10
212.8431472187849
 20
153.8521054343013
 10
212.8255888825269
 20
153.8269057825833
 10
212.8060898190349
 20
153.8007369593413
 10
212.7845463162269
 20
153.7736943320063
 10
212.76133149918
 20
153.7464478567873
 10
212.7377614384499
 20
153.7205603674683
 10
212.7140960102879
 20
153.6961236552033
 10
212.6905283337439
 20
153.6731472567353
 10
212.6672539120519
 20
153.6516407088073
 10
212.6444682484479
 20
153.6316159323483
 10
212.6223656540719
 20
153.6130800799163
 10
212.6011428242529
 20
153.5960438803463
 10
212.5809928780409
 20
153.5805180624753
 10
212.5621113186689
 20
153.5665121630463
 10
212.5446936493719
 20
153.5540369108943
 10
212.528934181294
 20
153.5431006506713
 10
212.515027225575
 20
153.5337141112123
  0
LWPOLYLINE
  5
73C
330
1F
100
AcDbEntity
  8
Sichtbare_Kanten_TC_020513_DIN_
  6
Continuous
 62
     7
100
AcDbPolyline
 90
       25
 70
     0
 43
0.5
 10
213.5887166863289
 20
154.9337139681603
 10
213.5610601311529
 20
154.9318793371943
 10
213.53345841225
 20
154.9263957098753
 10
213.5058948403199
 20
154.9172905043393
 10
213.4783503418769
 20
154.9045947150023
 10
213.450808227619
 20
154.8883369520933
 10
213.4232494240609
 20
154.8685446337493
 10
213.3956560498079
 20
154.8452487543853
 10
213.3680102234689
 20
154.8184779242303
 10
213.34034413155
 20
154.7883191660673
 10
213.3127352600899
 20
154.7549405649933
 10
213.2851657276949
 20
154.7184291437893
 10
213.2576200371589
 20
154.6788647726803
 10
213.2300779229009
 20
154.6363308981683
 10
213.2025226956209
 20
154.5909097746643
 10
213.1749364739269
 20
154.5426824644833
 10
213.1473013764229
 20
154.4917324141293
 10
213.1196293240399
 20
154.4382026747493
 10
213.0920061474649
 20
154.3823996142183
 10
213.0644211178629
 20
154.3244603232173
 10
213.0368575459329
 20
154.2645052031313
 10
213.0092975502819
 20
154.2026558474333
 10
212.9817220574229
 20
154.1390302733213
 10
212.9541143780559
 20
154.0737512663633
 10
212.9264554386939
 20
154.0069380358483
  0
LWPOLYLINE
  5
73D
330
1F
100
AcDbEntity
  8
Sichtbare_Kanten_TC_020513_DIN_
  6
Continuous
 62
     7
100
AcDbPolyline
 90
       25
 70
     0
 43
0.5
 10
212.3231467610209
 20
142.3735687092573
 10
212.3133191471909
 20
142.4199330762653
 10
212.3034951096389
 20
142.4666541770723
 10
212.2936734562729
 20
142.5137203887733
 10
212.283855379185
 20
142.5611194924143
 10
212.2740384941909
 20
142.6088398650913
 10
212.2642216091959
 20
142.6568695858743
 10
212.2544059162949
 20
142.7051961377893
 10
212.2445890312999
 20
142.7538081959513
 10
212.2347709542129
 20
142.8026935414103
 10
212.2249493008469
 20
142.8518399552133
 10
212.2151252632949
 20
142.9012355164323
 10
212.2052964573709
 20
142.9508689001833
 10
212.1954688435409
 20
143.0007031515863
 10
212.1856448059889
 20
143.0507001236703
 10
212.1758231526229
 20
143.1008484915523
 10
212.1660050755349
 20
143.1511351422103
 10
212.1561881905409
 20
143.2015469626223
 10
212.1463713055459
 20
143.2520726279053
 10
212.1365556126449
 20
143.3026990250383
 10
212.1267387276499
 20
143.3534130409983
 10
212.1169206505629
 20
143.4042027548583
 10
212.1070989971969
 20
143.4550556496413
 10
212.0972749596449
 20
143.5059586123253
 10
212.0874473458139
 20
143.5568997219833
  0
LWPOLYLINE
  5
73E
330
1F
100
AcDbEntity
  8
Sichtbare_Kanten_TC_020513_DIN_
  6
Continuous
 62
     7
100
AcDbPolyline
 90
       25
 70
     0
 43
0.5
 10
212.0874473458139
 20
143.5568997219833
 10
212.0972749596439
 20
143.5314294651773
 10
212.1070989971959
 20
143.5059776858123
 10
212.1169206505629
 20
143.4805515364433
 10
212.1267387276499
 20
143.4551563814903
 10
212.1365556126439
 20
143.4297993735103
 10
212.1463713055459
 20
143.4044864729673
 10
212.1561881905409
 20
143.3792236403253
 10
212.1660050755349
 20
143.3540174320963
 10
212.1758231526219
 20
143.3288744047913
 10
212.1856448059889
 20
143.3037999228263
 10
212.1954688435399
 20
143.2788017348083
 10
212.2052964573709
 20
143.2538846091063
 10
212.2151252632939
 20
143.2290676192073
 10
212.2249493008459
 20
143.2043698385983
 10
212.2347709542119
 20
143.1797966316973
 10
212.2445890312999
 20
143.1553539589673
 10
212.2544059162939
 20
143.1310477808743
 10
212.2642216091959
 20
143.1068846539293
 10
212.2740384941899
 20
143.0828699425493
 10
212.283855379185
 20
143.0590096071983
 10
212.2936734562719
 20
143.0353102043893
 10
212.3034951096379
 20
143.0117770985393
 10
212.3133191471899
 20
142.9884162501123
 10
212.3231467610209
 20
142.9652342156203
  0
LWPOLYLINE
  5
73F
330
1F
100
AcDbEntity
  8
Sichtbare_Kanten_TC_020513_DIN_
  6
Continuous
 62
     7
100
AcDbPolyline
 90
       25
 70
     0
 43
0.5
 10
204.252947271428
 20
155.3380718783173
 10
204.249525964818
 20
155.3470006541043
 10
204.2462477093549
 20
155.3559282377993
 10
204.2431172734119
 20
155.3648558214933
 10
204.2401298886159
 20
155.3737834051873
 10
204.2372879391529
 20
155.3827097967893
 10
204.2345890408369
 20
155.3916373804833
 10
204.2320379620409
 20
155.4005637720853
 10
204.2296299343919
 20
155.4094913557793
 10
204.2273673420759
 20
155.4184177473813
 10
204.225250185094
 20
155.4273453310763
 10
204.2232784634449
 20
155.4362741068633
 10
204.2214545613149
 20
155.4452028826503
 10
204.2197737103319
 20
155.4541304663453
 10
204.2182382946819
 20
155.4630592421323
 10
204.2168506985519
 20
155.4719868258263
 10
204.2156085377549
 20
155.4809144095213
 10
204.2145118122909
 20
155.4898408011223
 10
204.2135629063459
 20
155.4987683848173
 10
204.2127570515489
 20
155.5076947764183
 10
204.2120990162709
 20
155.5166211680203
 10
204.2115888005109
 20
155.5255487517143
 10
204.2112216359
 20
155.5344763354093
 10
204.211002290807
 20
155.5434051111963
 10
204.2109283810469
 20
155.5523326948913
  0
LWPOLYLINE
  5
740
330
1F
100
AcDbEntity
  8
Sichtbare_Kanten_TC_020513_DIN_
  6
Continuous
 62
     7
100
AcDbPolyline
 90
       25
 70
     0
 43
0.5
 10
205.610929430089
 20
155.5523326948913
 10
205.6109651928759
 20
155.5434051111963
 10
205.6110748654219
 20
155.5344763354093
 10
205.6112584477279
 20
155.5255487517143
 10
205.6115135556079
 20
155.5166211680203
 10
205.6118425732469
 20
155.5076947764183
 10
205.6122455006459
 20
155.4987683848173
 10
205.6127199536179
 20
155.4898408011223
 10
205.61326831635
 20
155.4809144095213
 10
205.6138905888419
 20
155.4719868258263
 10
205.6145843869069
 20
155.4630592421323
 10
205.615352094731
 20
155.4541304663453
 10
205.61619132813
 20
155.4452028826503
 10
205.6171044712879
 20
155.4362741068633
 10
205.6180891400189
 20
155.4273453310763
 10
205.6191477185109
 20
155.4184177473813
 10
205.6202802067609
 20
155.4094913557793
 10
205.6214842205859
 20
155.4005637720853
 10
205.6227597599839
 20
155.3916373804833
 10
205.6241092091419
 20
155.3827097967893
 10
205.6255301838729
 20
155.3737834051873
 10
205.6270226841779
 20
155.3648558214933
 10
205.6285890942429
 20
155.3559282377993
 10
205.6302270298809
 20
155.3470006541043
 10
205.6319388752789
 20
155.3380718783173
  0
LWPOLYLINE
  5
741
330
1F
100
AcDbEntity
  8
Sichtbare_Kanten_TC_020513_DIN_
  6
Continuous
 62
     7
100
AcDbPolyline
 90
       25
 70
     0
 43
0.5
 10
207.0109304791299
 20
154.4412866190703
 10
206.9954594975319
 20
154.4545617655543
 10
206.9799885159339
 20
154.4678369120393
 10
206.9645199185219
 20
154.4811108664303
 10
206.9490537052959
 20
154.4943848208223
 10
206.9335898762549
 20
154.5076575831203
 10
206.9181284314009
 20
154.5209315375123
 10
206.9026693707319
 20
154.5342054919033
 10
206.8872126942479
 20
154.5474782542023
 10
206.8717607861369
 20
154.5607522085933
 10
206.8563112622109
 20
154.5740261629853
 10
206.8408665066569
 20
154.5873013094693
 10
206.8254289036599
 20
154.6005752638613
 10
206.8099936848489
 20
154.6138504103453
 10
206.7945656185949
 20
154.6271255568293
 10
206.7791470890849
 20
154.6403995112213
 10
206.7637333279459
 20
154.6536734656123
 10
206.7483291035499
 20
154.6669462279113
 10
206.7329320317119
 20
154.6802201823023
 10
206.7175444966169
 20
154.6934941366943
 10
206.7021641140789
 20
154.7067668989923
 10
206.6867932682839
 20
154.7200408533843
 10
206.6714319592329
 20
154.7333148077753
 10
206.6560825711099
 20
154.7465899542603
 10
206.6407403355449
 20
154.7598651007443
  0
LWPOLYLINE
  5
742
330
1F
100
AcDbEntity
  8
Sichtbare_Kanten_TC_020513_DIN_
  6
Continuous
 62
     7
100
AcDbPolyline
 90
       25
 70
     0
 43
0.5
 10
206.8258342152449
 20
154.7598651007443
 10
206.8335065251199
 20
154.7465899542603
 10
206.8411812191819
 20
154.7333148077753
 10
206.8488606816139
 20
154.7200408533843
 10
206.856547296605
 20
154.7067668989923
 10
206.8642362957809
 20
154.6934941366943
 10
206.8719300633279
 20
154.6802201823023
 10
206.8796285992479
 20
154.6669462279113
 10
206.8873319035379
 20
154.6536734656123
 10
206.8950375920149
 20
154.6403995112213
 10
206.9027480488629
 20
154.6271255568293
 10
206.9104608898969
 20
154.6138504103453
 10
206.9181784993029
 20
154.6005752638613
 10
206.9258984928939
 20
154.5873013094693
 10
206.9336208706709
 20
154.5740261629853
 10
206.9413456326339
 20
154.5607522085933
 10
206.9490703945969
 20
154.5474782542023
 10
206.9567999249309
 20
154.5342054919033
 10
206.964529455266
 20
154.5209315375123
 10
206.9722589855999
 20
154.5076575831203
 10
206.9799909001199
 20
154.4943848208223
 10
206.987725198826
 20
154.4811108664303
 10
206.9954594975319
 20
154.4678369120393
 10
207.003193796238
 20
154.4545617655543
 10
207.0109304791299
 20
154.4412866190703
  0
LWPOLYLINE
  5
743
330
1F
100
AcDbEntity
  8
Sichtbare_Kanten_TC_020513_DIN_
  6
Continuous
 62
     7
100
AcDbPolyline
 90
       25
 70
     0
 43
0.5
 10
206.6407403355449
 20
154.7598651007443
 10
206.6273269062849
 20
154.7712269381313
 10
206.6106924420209
 20
154.7848394469053
 10
206.5908679371679
 20
154.8004284457003
 10
206.567882001957
 20
154.8177257136133
 10
206.541768014988
 20
154.8364594534663
 10
206.512552202305
 20
154.8563590601713
 10
206.4802655583229
 20
154.8771551207333
 10
206.4449390774579
 20
154.8985746458803
 10
206.4066013699379
 20
154.9203482226163
 10
206.3652834301799
 20
154.9422052458553
 10
206.3210138684119
 20
154.9638751105103
 10
206.2738236790509
 20
154.9850872114923
 10
206.2237438565099
 20
155.0055697516233
 10
206.1709484463539
 20
155.0250115946563
 10
206.1173376446569
 20
155.0426986769463
 10
206.0635575657689
 20
155.0584629133973
 10
206.0096964245649
 20
155.0723174170283
 10
205.9558424359169
 20
155.0842788771423
 10
205.902081430515
 20
155.0943615988523
 10
205.8485016232339
 20
155.1025775030883
 10
205.7951888447609
 20
155.1089432791503
 10
205.7422313099709
 20
155.1134720400603
 10
205.689717233738
 20
155.1161780909333
 10
205.6377324467509
 20
155.1170769289763
  0
LWPOLYLINE
  5
744
330
1F
100
AcDbEntity
  8
Sichtbare_Kanten_TC_020513_DIN_
  6
Continuous
 62
     7
100
AcDbPolyline
 90
       25
 70
     0
 43
0.5
 10
206.3243302708479
 20
155.1170769289763
 10
206.3518008595319
 20
155.1160612658293
 10
206.3793644314619
 20
155.1130381182463
 10
206.4069637661789
 20
155.1080468252923
 10
206.4345416432229
 20
155.1011255339413
 10
206.462040842137
 20
155.0923135832583
 10
206.489396989903
 20
155.0816538885863
 10
206.5163430577129
 20
155.0692895010743
 10
206.5427502995339
 20
155.0553384379173
 10
206.56858295258
 20
155.0398829535273
 10
206.5938028698769
 20
155.0230053023133
 10
206.6183719044539
 20
155.0047901228693
 10
206.6422566777079
 20
154.9853196696073
 10
206.6653284436079
 20
154.9647584513453
 10
206.6870412236069
 20
154.9437048987183
 10
206.7073187237589
 20
154.9224534586693
 10
206.7261633282519
 20
154.9012306288513
 10
206.743582189641
 20
154.8802652910973
 10
206.759572923741
 20
154.8597863272453
 10
206.7741450672959
 20
154.8400202349453
 10
206.7873010044909
 20
154.8211947039393
 10
206.7990455036969
 20
154.8035386160643
 10
206.8093785649149
 20
154.7872796610623
 10
206.8183073407029
 20
154.7726455286773
 10
206.8258342152449
 20
154.7598651007443
  0
LWPOLYLINE
  5
745
330
1F
100
AcDbEntity
  8
Sichtbare_Kanten_TC_020513_DIN_
  6
Continuous
 62
     7
100
AcDbPolyline
 90
       25
 70
     0
 43
0.5
 10
204.6418699627729
 20
155.1170769289763
 10
204.6124514942979
 20
155.1176157549653
 10
204.5840296154829
 20
155.1192358092103
 10
204.5566138630719
 20
155.1219418600823
 10
204.5302137738079
 20
155.1257386759553
 10
204.5048388844339
 20
155.1306286410123
 10
204.4805011158799
 20
155.1366177157193
 10
204.457207620701
 20
155.1437094763543
 10
204.434970319829
 20
155.1519086912903
 10
204.41380113419
 20
155.1612189368043
 10
204.3937167530869
 20
155.1716402128963
 10
204.3751296406599
 20
155.1829221800593
 10
204.3581804638719
 20
155.1948359564573
 10
204.3427833920329
 20
155.2072456434993
 10
204.3288621311999
 20
155.2200177267823
 10
204.3163356190539
 20
155.2330174998073
 10
204.3051204090929
 20
155.2461102560793
 10
204.2951378231859
 20
155.2591624811913
 10
204.2863044148299
 20
155.2720382765563
 10
204.2785415058949
 20
155.2846041277673
 10
204.2717680340619
 20
155.2967241362363
 10
204.2659029370159
 20
155.3082659796503
 10
204.2608651524399
 20
155.3190937594203
 10
204.2565736180159
 20
155.3290739611413
 10
204.252947271428
 20
155.3380718783173
  0
LWPOLYLINE
  5
746
330
1F
100
AcDbEntity
  8
Sichtbare_Kanten_TC_020513_DIN_
  6
Continuous
 62
     7
100
AcDbPolyline
 90
       25
 70
     0
 43
0.5
 10
205.6319388752789
 20
155.3380718783173
 10
205.6337651615949
 20
155.3289881304533
 10
205.6359013920639
 20
155.3190091208253
 10
205.6383904820299
 20
155.3082540587213
 10
205.6412681942799
 20
155.2968469218043
 10
205.6445822125289
 20
155.2849081114563
 10
205.6483682995649
 20
155.2725592211513
 10
205.6526669865469
 20
155.2599230364593
 10
205.6575211888169
 20
155.2471199587613
 10
205.6629714375349
 20
155.2342727736263
 10
205.6690582638599
 20
155.2215030745293
 10
205.6758198147629
 20
155.2089324549463
 10
205.6833013897749
 20
155.1966825083523
 10
205.6915387516829
 20
155.1848748282223
 10
205.7005748158309
 20
155.1736322001243
 10
205.7103809719899
 20
155.1631477431093
 10
205.720811784825
 20
155.1536706045893
 10
205.7318648701519
 20
155.1452317789823
 10
205.7435497647139
 20
155.1378515318663
 10
205.7558783894389
 20
155.1315513209133
 10
205.7688316708419
 20
155.1263609484463
 10
205.782369077763
 20
155.1223102167873
 10
205.7964810734599
 20
155.1194074705873
 10
205.8111581211899
 20
155.1176610544953
 10
205.8264002209519
 20
155.1170769289763
  0
SOLID
  5
747
330
1F
100
AcDbEntity
  8
1
 62
     2
100
AcDbTrace
 10
253.1057102326124
 20
66.1994592260827
 30
0.0
 11
252.6144091065488
 21
65.58092152481898
 31
0.0
 12
250.5109295254559
 22
67.7560916498929
 32
0.0
 13
250.5109295254559
 23
67.7560916498929
 33
0.0
  0
LEADER
  5
748
330
1F
100
AcDbEntity
  8
1
  6
Continuous
 62
     2
100
AcDbLeader
  3
Standard
 71
     0
 76
     3
 10
250.5109295254559
 20
67.7560916498929
 30
0.0
 10
271.691380392944
 20
50.9325749257362
 30
0.0
 10
283.431451769298
 20
50.9325749257362
 30
0.0
  0
MTEXT
  5
74A
330
1F
100
AcDbEntity
  8
1
 62
     4
100
AcDbMText
 10
272.995832768095
 20
52.4742004600049
 30
0.0
 40
3.5
 41
0.0
 71
     7
 72
     1
  1
\U+00f85,5
  7
CONVERTER_13
 73
     1
 44
1.32052821128451
  0
MTEXT
  5
74B
330
1F
100
AcDbEntity
  8
1
 62
     7
100
AcDbMText
 10
256.6763006887431
 20
10.0606394207561
 30
0.0
 40
4.5
 41
0.0
 71
     5
 72
     1
  1
1:1
  7
CONVERTER_11
 73
     1
 44
0.75727272727273
  0
MTEXT
  5
74C
330
1F
100
AcDbEntity
  8
1
 62
     7
100
AcDbMText
 10
119.6
 20
7.49999999999987
 30
0.0
 40
3.0
 41
0.0
 71
     4
 72
     1
  1
Pezzimenti
  7
CONVERTER_11
 73
     1
 44
0.75727272727273
  0
MTEXT
  5
74D
330
1F
100
AcDbEntity
  8
1
 62
     7
100
AcDbMText
 10
119.6
 20
12.4999999999999
 30
0.0
 40
3.0
 41
0.0
 71
     4
 72
     1
  1
08/08/14
  7
CONVERTER_11
 73
     1
 44
0.75727272727273
  0
MTEXT
  5
74E
330
1F
100
AcDbEntity
  8
1
 62
     7
100
AcDbMText
 10
144.276300688743
 20
12.5
 30
0.0
 40
4.5
 41
0.0
 71
     4
 72
     1
  1
M7AP 16.32\PSurface mounting h. 2 lev. M32.
  7
CONVERTER_11
 73
     1
 44
0.75727272727273
  0
DIMENSION
  5
759
330
1F
100
AcDbEntity
  8
1
100
AcDbDimension
  2
*D2
 10
276.800620375251
 20
144.7560916498933
 30
0.0
 11
273.300620375251
 21
106.2560916498931
 31
0.0
 70
    32
  1
<>
 71
     5
 42
-1.0
 53
90.0
  3
ME10_DIM_10
100
AcDbAlignedDimension
 13
256.5109295254539
 23
67.7560916498929
 33
0.0
 14
250.060929525459
 24
144.7560916498933
 34
0.0
 50
90.0
100
AcDbRotatedDimension
  0
DIMENSION
  5
764
330
1F
100
AcDbEntity
  8
1
100
AcDbDimension
  2
*D3
 10
256.5109295254639
 20
176.027756459946
 30
0.0
 11
228.0109295254639
 21
179.527756459946
 31
0.0
 70
    32
  1
58
 71
     5
 42
-1.0
 53
0.00013888888889
  3
ME10_DIM_11
100
AcDbAlignedDimension
 13
199.5109295254639
 23
141.7560916498933
 33
0.0
 14
256.5109295254639
 24
141.7560916498933
 34
0.0
100
AcDbRotatedDimension
  0
DIMENSION
  5
771
330
1F
100
AcDbEntity
  8
1
100
AcDbDimension
  2
*D4
 10
192.306307080971
 20
67.7560916498929
 30
0.0
 11
188.806307080971
 21
82.5614222368223
 31
0.0
 70
    32
  1
<>
 71
     5
 42
-1.0
 53
90.0
  3
ME10_DIM_12
100
AcDbAlignedDimension
 13
199.5109295254539
 23
71.7560916498929
 33
0.0
 14
199.5109295254539
 24
67.7560916498929
 34
0.0
 50
90.0
100
AcDbRotatedDimension
  0
DIMENSION
  5
77C
330
1F
100
AcDbEntity
  8
1
100
AcDbDimension
  2
*D5
 10
166.19983125126
 20
105.7560916498933
 30
0.0
 11
162.69983125126
 21
89.7560916498931
 31
0.0
 70
    32
  1
M32
 71
     5
 42
-1.0
 53
90.0
  3
ME10_DIM_13
100
AcDbAlignedDimension
 13
153.8708641744299
 23
73.7560916498929
 33
0.0
 14
153.8708641744299
 24
105.7560916498933
 34
0.0
 50
90.0
100
AcDbRotatedDimension
  0
DIMENSION
  5
787
330
1F
100
AcDbEntity
  8
1
100
AcDbDimension
  2
*D6
 10
175.905493963791
 20
144.7560916498933
 30
0.0
 11
172.405493963791
 21
106.2560916498931
 31
0.0
 70
    32
  1
<>
 71
     5
 42
-1.0
 53
90.0
  3
ME10_DIM_14
100
AcDbAlignedDimension
 13
152.8708641744299
 23
67.7560916498929
 33
0.0
 14
140.9208641744299
 24
144.7560916498933
 34
0.0
 50
90.0
100
AcDbRotatedDimension
  0
DIMENSION
  5
792
330
1F
100
AcDbEntity
  8
1
100
AcDbDimension
  2
*D7
 10
164.3048141461459
 20
175.255562060131
 30
0.0
 11
94.37086417442967
 21
178.905562060131
 31
0.0
 70
    32
  1
142,5
 71
     5
 42
-1.0
 53
0.00013888888889
  3
ME10_DIM_15
100
AcDbAlignedDimension
 13
24.43691420271343
 23
128.5560916498931
 33
0.0
 14
164.3048141461459
 24
126.7560916498933
 34
0.0
100
AcDbRotatedDimension
  0
DIMENSION
  5
79D
330
1F
100
AcDbEntity
  8
1
100
AcDbDimension
  2
*D8
 10
205.5109295254559
 20
54.2625141295425
 30
0.0
 11
228.0109295254559
 21
57.7625141295425
 31
0.0
 70
    32
  1
<>
 71
     5
 42
-1.0
 53
0.00013888888889
  3
ME10_DIM_16
100
AcDbAlignedDimension
 13
250.5109295254559
 23
65.2560916498929
 33
0.0
 14
205.5109295254559
 24
65.2560916498929
 34
0.0
100
AcDbRotatedDimension
  0
DIMENSION
  5
7A8
330
1F
100
AcDbEntity
  8
1
100
AcDbDimension
  2
*D9
 10
199.5109295254539
 20
41.6
 30
0.0
 11
228.0109295254539
 21
45.1
 31
0.0
 70
    32
  1
<>
 71
     5
 42
-1.0
 53
0.00013888888889
  3
ME10_DIM_17
100
AcDbAlignedDimension
 13
256.5109295254539
 23
67.7560916498929
 33
0.0
 14
199.5109295254539
 24
67.7560916498929
 34
0.0
100
AcDbRotatedDimension
  0
DIMENSION
  5
7B3
330
1F
100
AcDbEntity
  8
1
100
AcDbDimension
  2
*D10
 10
35.87086417442953
 20
41.6
 30
0.0
 11
94.37086417442973
 21
45.1
 31
0.0
 70
    32
  1
<>
 71
     5
 42
-1.0
 53
0.00013888888889
  3
ME10_DIM_18
100
AcDbAlignedDimension
 13
152.8708641744299
 23
67.7560916498929
 33
0.0
 14
35.87086417442954
 24
67.7560916498929
 34
0.0
100
AcDbRotatedDimension
  0
DIMENSION
  5
7BE
330
1F
100
AcDbEntity
  8
1
100
AcDbDimension
  2
*D11
 10
41.87086417442953
 20
54.2625141295425
 30
0.0
 11
94.37086417442973
 21
57.7625141295425
 31
0.0
 70
    32
  1
<>
 71
     5
 42
-1.0
 53
0.00013888888889
  3
ME10_DIM_19
100
AcDbAlignedDimension
 13
146.8708641744299
 23
65.2560916498929
 33
0.0
 14
41.87086417442954
 24
65.2560916498929
 34
0.0
100
AcDbRotatedDimension
  0
ENDSEC
  0
SECTION
  2
OBJECTS
  0
DICTIONARY
  5
C
330
0
100
AcDbDictionary
281
     1
  3
ACAD_GROUP
350
D
  3
ACAD_LAYOUT
350
1A
  3
ACAD_MATERIAL
350
3B
  3
ACAD_MLEADERSTYLE
350
7C1
  3
ACAD_MLINESTYLE
350
17
  3
ACAD_PLOTSETTINGS
350
19
  3
ACAD_PLOTSTYLENAME
350
E
  3
ACAD_VISUALSTYLE
350
2A
  3
AcDbVariableDictionary
350
7BF
  0
DICTIONARY
  5
D
102
{ACAD_REACTORS
330
C
102
}
330
C
100
AcDbDictionary
281
     1
  0
DICTIONARY
  5
1A
102
{ACAD_REACTORS
330
C
102
}
330
C
100
AcDbDictionary
281
     1
  3
Layout1
350
1E
  3
Layout2
350
26
  3
Model
350
22
  0
DICTIONARY
  5
3B
102
{ACAD_REACTORS
330
C
102
}
330
C
100
AcDbDictionary
281
     1
  3
ByBlock
350
3D
  3
ByLayer
350
3C
  3
Global
350
3E
  0
DICTIONARY
  5
7C1
102
{ACAD_REACTORS
330
C
102
}
330
C
100
AcDbDictionary
281
     1
  0
DICTIONARY
  5
17
102
{ACAD_REACTORS
330
C
102
}
330
C
100
AcDbDictionary
281
     1
  3
Standard
350
18
  0
DICTIONARY
  5
19
102
{ACAD_REACTORS
330
C
102
}
330
C
100
AcDbDictionary
281
     1
  0
ACDBDICTIONARYWDFLT
  5
E
102
{ACAD_REACTORS
330
C
102
}
330
C
100
AcDbDictionary
281
     1
  3
Normal
350
F
100
AcDbDictionaryWithDefault
340
F
  0
DICTIONARY
  5
2A
102
{ACAD_REACTORS
330
C
102
}
330
C
100
AcDbDictionary
281
     1
  3
2dWireframe
350
2F
  3
3D Hidden
350
31
  3
3dWireframe
350
30
  3
Basic
350
32
  3
Brighten
350
36
  3
ColorChange
350
3A
  3
Conceptual
350
34
  3
Dim
350
35
  3
Facepattern
350
39
  3
Flat
350
2B
  3
FlatWithEdges
350
2C
  3
Gouraud
350
2D
  3
GouraudWithEdges
350
2E
  3
Linepattern
350
38
  3
Realistic
350
33
  3
Thicken
350
37
  0
DICTIONARY
  5
7BF
102
{ACAD_REACTORS
330
C
102
}
330
C
100
AcDbDictionary
281
     1
  3
DIMASSOC
350
7C2
  3
HIDETEXT
350
7C3
  0
LAYOUT
  5
1E
102
{ACAD_REACTORS
330
1A
102
}
330
1A
100
AcDbPlotSettings
  1

  2
none_device
  4

  6

 40
0.0
 41
0.0
 42
0.0
 43
0.0
 44
0.0
 45
0.0
 46
0.0
 47
0.0
 48
0.0
 49
0.0
140
0.0
141
0.0
142
1.0
143
1.0
 70
   688
 72
     0
 73
     0
 74
     5
  7

 75
    16
147
1.0
148
0.0
149
0.0
100
AcDbLayout
  1
Layout1
 70
     1
 71
     1
 10
0.0
 20
0.0
 11
12.0
 21
9.0
 12
0.0
 22
0.0
 32
0.0
 14
1.00000000000000E+20
 24
1.00000000000000E+20
 34
1.00000000000000E+20
 15
-1.00000000000000E+20
 25
-1.00000000000000E+20
 35
-1.00000000000000E+20
146
0.0
 13
0.0
 23
0.0
 33
0.0
 16
1.0
 26
0.0
 36
0.0
 17
0.0
 27
1.0
 37
0.0
 76
     0
330
1B
  0
LAYOUT
  5
26
102
{ACAD_REACTORS
330
1A
102
}
330
1A
100
AcDbPlotSettings
  1

  2
none_device
  4

  6

 40
0.0
 41
0.0
 42
0.0
 43
0.0
 44
0.0
 45
0.0
 46
0.0
 47
0.0
 48
0.0
 49
0.0
140
0.0
141
0.0
142
1.0
143
1.0
 70
   688
 72
     0
 73
     0
 74
     5
  7

 75
    16
147
1.0
148
0.0
149
0.0
100
AcDbLayout
  1
Layout2
 70
     1
 71
     2
 10
0.0
 20
0.0
 11
0.0
 21
0.0
 12
0.0
 22
0.0
 32
0.0
 14
0.0
 24
0.0
 34
0.0
 15
0.0
 25
0.0
 35
0.0
146
0.0
 13
0.0
 23
0.0
 33
0.0
 16
1.0
 26
0.0
 36
0.0
 17
0.0
 27
1.0
 37
0.0
 76
     0
330
23
  0
LAYOUT
  5
22
102
{ACAD_REACTORS
330
1A
102
}
330
1A
100
AcDbPlotSettings
  1

  2
none_device
  4

  6

 40
0.0
 41
0.0
 42
0.0
 43
0.0
 44
0.0
 45
0.0
 46
0.0
 47
0.0
 48
0.0
 49
0.0
140
0.0
141
0.0
142
1.0
143
1.0
 70
  1712
 72
     0
 73
     0
 74
     0
  7

 75
     0
147
1.0
148
0.0
149
0.0
100
AcDbLayout
  1
Model
 70
     1
 71
     0
 10
0.0
 20
0.0
 11
12.0
 21
9.0
 12
0.0
 22
0.0
 32
0.0
 14
0.0
 24
0.0
 34
0.0
 15
296.9999999999999
 25
210.0
 35
0.0
146
0.0
 13
0.0
 23
0.0
 33
0.0
 16
1.0
 26
0.0
 36
0.0
 17
0.0
 27
1.0
 37
0.0
 76
     0
330
1F
331
29
  0
MATERIAL
  5
3D
102
{ACAD_REACTORS
330
3B
102
}
102
{ACAD_XDICTIONARY
360
7E6
102
}
330
3B
100
AcDbMaterial
  1
ByBlock
  0
MATERIAL
  5
3C
102
{ACAD_REACTORS
330
3B
102
}
102
{ACAD_XDICTIONARY
360
7E4
102
}
330
3B
100
AcDbMaterial
  1
ByLayer
  0
MATERIAL
  5
3E
102
{ACAD_REACTORS
330
3B
102
}
102
{ACAD_XDICTIONARY
360
7E8
102
}
330
3B
100
AcDbMaterial
  1
Global
  0
MLINESTYLE
  5
18
102
{ACAD_REACTORS
330
17
102
}
330
17
100
AcDbMlineStyle
  2
Standard
 70
     0
  3

 62
   256
 51
90.0
 52
90.0
 71
     2
 49
0.5
 62
   256
  6
BYLAYER
 49
-0.5
 62
   256
  6
BYLAYER
  0
ACDBPLACEHOLDER
  5
F
102
{ACAD_REACTORS
330
E
102
}
330
E
  0
VISUALSTYLE
  5
2F
102
{ACAD_REACTORS
330
2A
102
}
102
{ACAD_XDICTIONARY
360
7CC
102
}
330
2A
100
AcDbVisualStyle
  2
2dWireframe
 70
     4
 71
     0
 72
     2
 73
     0
 90
        0
 40
-0.6
 41
-30.0
 62
     5
 63
     7
 74
     1
 91
        4
 64
     7
 65
   257
 75
     1
175
     1
 42
1.0
 92
        0
 66
   257
 43
1.0
 76
     1
 77
     6
 78
     2
 67
     7
 79
     5
170
     0
171
     0
290
     0
174
     0
 93
        1
 44
0.0
173
     0
291
     0
 45
0.0
1001
ACAD
1000
AcDbSavedByObjectVersion
1070
     0
  0
VISUALSTYLE
  5
31
102
{ACAD_REACTORS
330
2A
102
}
102
{ACAD_XDICTIONARY
360
7D0
102
}
330
2A
100
AcDbVisualStyle
  2
3D Hidden
 70
     6
 71
     1
 72
     2
 73
     2
 90
        0
 40
-0.6
 41
-30.0
 62
     5
 63
     7
 74
     2
 91
        2
 64
     7
 65
   257
 75
     2
175
     1
 42
40.0
 92
        0
 66
   257
 43
1.0
 76
     1
 77
     6
 78
     2
 67
     7
 79
     3
170
     0
171
     0
290
     0
174
     0
 93
        1
 44
0.0
173
     0
291
     0
 45
0.0
1001
ACAD
1000
AcDbSavedByObjectVersion
1070
     0
  0
VISUALSTYLE
  5
30
102
{ACAD_REACTORS
330
2A
102
}
102
{ACAD_XDICTIONARY
360
7CE
102
}
330
2A
100
AcDbVisualStyle
  2
3dWireframe
 70
     5
 71
     0
 72
     2
 73
     0
 90
        0
 40
-0.6
 41
-30.0
 62
     5
 63
     7
 74
     1
 91
        4
 64
     7
 65
   257
 75
     1
175
     1
 42
1.0
 92
        0
 66
   257
 43
1.0
 76
     1
 77
     6
 78
     2
 67
     7
 79
     5
170
     0
171
     0
290
     0
174
     0
 93
        1
 44
0.0
173
     0
291
     0
 45
0.0
1001
ACAD
1000
AcDbSavedByObjectVersion
1070
     0
  0
VISUALSTYLE
  5
32
102
{ACAD_REACTORS
330
2A
102
}
102
{ACAD_XDICTIONARY
360
7D2
102
}
330
2A
100
AcDbVisualStyle
  2
Basic
 70
     7
 71
     1
 72
     0
 73
     1
 90
        0
 40
-0.6
 41
-30.0
 62
     5
 63
     7
 74
     0
 91
        4
 64
     7
 65
   257
 75
     1
175
     1
 42
1.0
 92
        8
 66
     7
 43
1.0
 76
     1
 77
     6
 78
     2
 67
     7
 79
     5
170
     0
171
     0
290
     0
174
     0
 93
        1
 44
0.0
173
     0
291
     1
 45
0.0
1001
ACAD
1000
AcDbSavedByObjectVersion
1070
     0
  0
VISUALSTYLE
  5
36
102
{ACAD_REACTORS
330
2A
102
}
102
{ACAD_XDICTIONARY
360
7DA
102
}
330
2A
100
AcDbVisualStyle
  2
Brighten
 70
    12
 71
     2
 72
     2
 73
     0
 90
        0
 40
-0.6
 41
-30.0
 62
     5
 63
     7
 74
     1
 91
        4
 64
     7
 65
   257
 75
     1
175
     1
 42
1.0
 92
        8
 66
     7
 43
1.0
 76
     1
 77
     6
 78
     2
 67
     7
 79
     5
170
     0
171
     0
290
     0
174
     0
 93
        1
 44
50.0
173
     0
291
     1
 45
0.0
1001
ACAD
1000
AcDbSavedByObjectVersion
1070
     0
  0
VISUALSTYLE
  5
3A
102
{ACAD_REACTORS
330
2A
102
}
102
{ACAD_XDICTIONARY
360
7E2
102
}
330
2A
100
AcDbVisualStyle
  2
ColorChange
 70
    16
 71
     2
 72
     2
 73
     3
 90
        0
 40
-0.6
 41
-30.0
 62
     5
 63
     8
 74
     1
 91
        4
 64
     7
 65
   257
 75
     1
175
     1
 42
1.0
 92
        8
 66
     8
 43
1.0
 76
     1
 77
     6
 78
     2
 67
     7
 79
     5
170
     0
171
     0
290
     0
174
     0
 93
        1
 44
0.0
173
     0
291
     1
 45
0.0
1001
ACAD
1000
AcDbSavedByObjectVersion
1070
     0
  0
VISUALSTYLE
  5
34
102
{ACAD_REACTORS
330
2A
102
}
102
{ACAD_XDICTIONARY
360
7D6
102
}
330
2A
100
AcDbVisualStyle
  2
Conceptual
 70
     9
 71
     3
 72
     2
 73
     0
 90
        0
 40
-0.6
 41
-30.0
 62
     5
 63
     7
 74
     2
 91
        2
 64
     7
 65
   257
 75
     1
175
     1
 42
40.0
 92
        8
 66
     7
 43
1.0
 76
     1
 77
     6
 78
     2
 67
     7
 79
     3
170
     0
171
     0
290
     0
174
     0
 93
        1
 44
0.0
173
     0
291
     0
 45
0.0
1001
ACAD
1000
AcDbSavedByObjectVersion
1070
     0
  0
VISUALSTYLE
  5
35
102
{ACAD_REACTORS
330
2A
102
}
102
{ACAD_XDICTIONARY
360
7D8
102
}
330
2A
100
AcDbVisualStyle
  2
Dim
 70
    11
 71
     2
 72
     2
 73
     0
 90
        0
 40
-0.6
 41
-30.0
 62
     5
 63
     7
 74
     1
 91
        4
 64
     7
 65
   257
 75
     1
175
     1
 42
1.0
 92
        8
 66
     7
 43
1.0
 76
     1
 77
     6
 78
     2
 67
     7
 79
     5
170
     0
171
     0
290
     0
174
     0
 93
        1
 44
-50.0
173
     0
291
     1
 45
0.0
1001
ACAD
1000
AcDbSavedByObjectVersion
1070
     0
  0
VISUALSTYLE
  5
39
102
{ACAD_REACTORS
330
2A
102
}
102
{ACAD_XDICTIONARY
360
7E0
102
}
330
2A
100
AcDbVisualStyle
  2
Facepattern
 70
    15
 71
     2
 72
     2
 73
     0
 90
        0
 40
-0.6
 41
-30.0
 62
     5
 63
     7
 74
     1
 91
        4
 64
     7
 65
   257
 75
     1
175
     1
 42
1.0
 92
        8
 66
     7
 43
1.0
 76
     1
 77
     6
 78
     2
 67
     7
 79
     5
170
     0
171
     0
290
     0
174
     0
 93
        1
 44
0.0
173
     0
291
     1
 45
0.0
1001
ACAD
1000
AcDbSavedByObjectVersion
1070
     0
  0
VISUALSTYLE
  5
2B
102
{ACAD_REACTORS
330
2A
102
}
102
{ACAD_XDICTIONARY
360
7C4
102
}
330
2A
100
AcDbVisualStyle
  2
Flat
 70
     0
 71
     2
 72
     1
 73
     1
 90
        2
 40
-0.6
 41
30.0
 62
     5
 63
     7
 74
     0
 91
        4
 64
     7
 65
   257
 75
     1
175
     1
 42
1.0
 92
        8
 66
     7
 43
1.0
 76
     1
 77
     6
 78
     2
 67
     7
 79
     5
170
     0
171
     0
290
     0
174
     0
 93
       13
 44
0.0
173
     0
291
     1
 45
0.0
1001
ACAD
1000
AcDbSavedByObjectVersion
1070
     0
  0
VISUALSTYLE
  5
2C
102
{ACAD_REACTORS
330
2A
102
}
102
{ACAD_XDICTIONARY
360
7C6
102
}
330
2A
100
AcDbVisualStyle
  2
FlatWithEdges
 70
     1
 71
     2
 72
     1
 73
     1
 90
        2
 40
-0.6
 41
30.0
 62
     5
 63
     7
 74
     1
 91
        4
 64
     7
 65
   257
 75
     1
175
     1
 42
1.0
 92
        0
 66
   257
 43
1.0
 76
     1
 77
     6
 78
     2
 67
     7
 79
     5
170
     0
171
     0
290
     0
174
     0
 93
       13
 44
0.0
173
     0
291
     1
 45
0.0
1001
ACAD
1000
AcDbSavedByObjectVersion
1070
     0
  0
VISUALSTYLE
  5
2D
102
{ACAD_REACTORS
330
2A
102
}
102
{ACAD_XDICTIONARY
360
7C8
102
}
330
2A
100
AcDbVisualStyle
  2
Gouraud
 70
     2
 71
     2
 72
     2
 73
     1
 90
        2
 40
-0.6
 41
30.0
 62
     5
 63
     7
 74
     0
 91
        4
 64
     7
 65
   257
 75
     1
175
     1
 42
1.0
 92
        0
 66
     7
 43
1.0
 76
     1
 77
     6
 78
     2
 67
     7
 79
     5
170
     0
171
     0
290
     0
174
     0
 93
       13
 44
0.0
173
     0
291
     1
 45
0.0
1001
ACAD
1000
AcDbSavedByObjectVersion
1070
     0
  0
VISUALSTYLE
  5
2E
102
{ACAD_REACTORS
330
2A
102
}
102
{ACAD_XDICTIONARY
360
7CA
102
}
330
2A
100
AcDbVisualStyle
  2
GouraudWithEdges
 70
     3
 71
     2
 72
     2
 73
     1
 90
        2
 40
-0.6
 41
30.0
 62
     5
 63
     7
 74
     1
 91
        4
 64
     7
 65
   257
 75
     1
175
     1
 42
1.0
 92
        0
 66
   257
 43
1.0
 76
     1
 77
     6
 78
     2
 67
     7
 79
     5
170
     0
171
     0
290
     0
174
     0
 93
       13
 44
0.0
173
     0
291
     1
 45
0.0
1001
ACAD
1000
AcDbSavedByObjectVersion
1070
     0
  0
VISUALSTYLE
  5
38
102
{ACAD_REACTORS
330
2A
102
}
102
{ACAD_XDICTIONARY
360
7DE
102
}
330
2A
100
AcDbVisualStyle
  2
Linepattern
 70
    14
 71
     2
 72
     2
 73
     0
 90
        0
 40
-0.6
 41
-30.0
 62
     5
 63
     7
 74
     1
 91
        4
 64
     7
 65
   257
 75
     7
175
     7
 42
1.0
 92
        8
 66
     7
 43
1.0
 76
     1
 77
     6
 78
     2
 67
     7
 79
     5
170
     0
171
     0
290
     0
174
     0
 93
        1
 44
0.0
173
     0
291
     1
 45
0.0
1001
ACAD
1000
AcDbSavedByObjectVersion
1070
     0
  0
VISUALSTYLE
  5
33
102
{ACAD_REACTORS
330
2A
102
}
102
{ACAD_XDICTIONARY
360
7D4
102
}
330
2A
100
AcDbVisualStyle
  2
Realistic
 70
     8
 71
     2
 72
     2
 73
     0
 90
        0
 40
-0.6
 41
-30.0
 62
     5
 63
     7
 74
     1
 91
        0
 64
     7
 65
   257
 75
     1
175
     1
 42
1.0
 92
        8
 66
     8
 43
1.0
 76
     1
 77
     6
 78
     2
 67
     7
 79
     5
170
     0
171
     0
290
     0
174
     0
 93
       13
 44
0.0
173
     0
291
     0
 45
0.0
1001
ACAD
1000
AcDbSavedByObjectVersion
1070
     0
  0
VISUALSTYLE
  5
37
102
{ACAD_REACTORS
330
2A
102
}
102
{ACAD_XDICTIONARY
360
7DC
102
}
330
2A
100
AcDbVisualStyle
  2
Thicken
 70
    13
 71
     2
 72
     2
 73
     0
 90
        0
 40
-0.6
 41
-30.0
 62
     5
 63
     7
 74
     1
 91
        4
 64
     7
 65
   257
 75
     1
175
     1
 42
1.0
 92
       12
 66
     7
 43
1.0
 76
     1
 77
     6
 78
     2
 67
     7
 79
     5
170
     0
171
     0
290
     0
174
     0
 93
        1
 44
0.0
173
     0
291
     1
 45
0.0
1001
ACAD
1000
AcDbSavedByObjectVersion
1070
     0
  0
DICTIONARYVAR
  5
7C2
102
{ACAD_REACTORS
330
7BF
102
}
330
7BF
100
DictionaryVariables
280
     0
  1
2
  0
DICTIONARYVAR
  5
7C3
102
{ACAD_REACTORS
330
7BF
102
}
330
7BF
100
DictionaryVariables
280
     0
  1
1
  0
DICTIONARY
  5
7E6
330
3D
100
AcDbDictionary
280
     1
281
     1
  3
ACAD_XREC_ROUNDTRIP
360
7E7
  0
DICTIONARY
  5
7E4
330
3C
100
AcDbDictionary
280
     1
281
     1
  3
ACAD_XREC_ROUNDTRIP
360
7E5
  0
DICTIONARY
  5
7E8
330
3E
100
AcDbDictionary
280
     1
281
     1
  3
ACAD_XREC_ROUNDTRIP
360
7E9
  0
DICTIONARY
  5
7CC
330
2F
100
AcDbDictionary
280
     1
281
     1
  3
ACAD_XREC_ROUNDTRIP
360
7CD
  0
DICTIONARY
  5
7D0
330
31
100
AcDbDictionary
280
     1
281
     1
  3
ACAD_XREC_ROUNDTRIP
360
7D1
  0
DICTIONARY
  5
7CE
330
30
100
AcDbDictionary
280
     1
281
     1
  3
ACAD_XREC_ROUNDTRIP
360
7CF
  0
DICTIONARY
  5
7D2
330
32
100
AcDbDictionary
280
     1
281
     1
  3
ACAD_XREC_ROUNDTRIP
360
7D3
  0
DICTIONARY
  5
7DA
330
36
100
AcDbDictionary
280
     1
281
     1
  3
ACAD_XREC_ROUNDTRIP
360
7DB
  0
DICTIONARY
  5
7E2
330
3A
100
AcDbDictionary
280
     1
281
     1
  3
ACAD_XREC_ROUNDTRIP
360
7E3
  0
DICTIONARY
  5
7D6
330
34
100
AcDbDictionary
280
     1
281
     1
  3
ACAD_XREC_ROUNDTRIP
360
7D7
  0
DICTIONARY
  5
7D8
330
35
100
AcDbDictionary
280
     1
281
     1
  3
ACAD_XREC_ROUNDTRIP
360
7D9
  0
DICTIONARY
  5
7E0
330
39
100
AcDbDictionary
280
     1
281
     1
  3
ACAD_XREC_ROUNDTRIP
360
7E1
  0
DICTIONARY
  5
7C4
330
2B
100
AcDbDictionary
280
     1
281
     1
  3
ACAD_XREC_ROUNDTRIP
360
7C5
  0
DICTIONARY
  5
7C6
330
2C
100
AcDbDictionary
280
     1
281
     1
  3
ACAD_XREC_ROUNDTRIP
360
7C7
  0
DICTIONARY
  5
7C8
330
2D
100
AcDbDictionary
280
     1
281
     1
  3
ACAD_XREC_ROUNDTRIP
360
7C9
  0
DICTIONARY
  5
7CA
330
2E
100
AcDbDictionary
280
     1
281
     1
  3
ACAD_XREC_ROUNDTRIP
360
7CB
  0
DICTIONARY
  5
7DE
330
38
100
AcDbDictionary
280
     1
281
     1
  3
ACAD_XREC_ROUNDTRIP
360
7DF
  0
DICTIONARY
  5
7D4
330
33
100
AcDbDictionary
280
     1
281
     1
  3
ACAD_XREC_ROUNDTRIP
360
7D5
  0
DICTIONARY
  5
7DC
330
37
100
AcDbDictionary
280
     1
281
     1
  3
ACAD_XREC_ROUNDTRIP
360
7DD
  0
XRECORD
  5
7E7
102
{ACAD_REACTORS
330
7E6
102
}
330
7E6
100
AcDbXrecord
280
     1
102
MATERIAL
148
0.0
149
0.0
149
0.0
 93
        0
 94
      127
282
     0
 72
     1
 77
     1
171
     1
175
     1
179
     1
273
     0
  0
XRECORD
  5
7E5
102
{ACAD_REACTORS
330
7E4
102
}
330
7E4
100
AcDbXrecord
280
     1
102
MATERIAL
148
0.0
149
0.0
149
0.0
 93
        0
 94
      127
282
     0
 72
     1
 77
     1
171
     1
175
     1
179
     1
273
     0
  0
XRECORD
  5
7E9
102
{ACAD_REACTORS
330
7E8
102
}
330
7E8
100
AcDbXrecord
280
     1
102
MATERIAL
148
0.0
149
0.0
149
0.0
 93
        0
 94
      127
282
     0
 72
     1
 77
     1
171
     1
175
     1
179
     1
273
     0
  0
XRECORD
  5
7CD
102
{ACAD_REACTORS
330
7CC
102
}
330
7CC
100
AcDbXrecord
280
     1
102
RTVSPropertyOp0
 70
     1
102
RTVSPropertyOp1
 70
     1
102
RTVSPropertyOp2
 70
     1
102
RTVSPropertyOp3
 70
     1
102
RTVSPropertyOp4
 70
     1
102
RTVSPropertyOp5
 70
     1
102
RTVSPropertyOp6
 70
     1
102
RTVSPropertyOp7
 70
     1
102
RTVSPropertyOp8
 70
     1
102
RTVSPropertyOp9
 70
     1
102
RTVSPropertyOp10
 70
     1
102
RTVSPropertyOp11
 70
     1
102
RTVSPropertyOp12
 70
     1
102
RTVSPropertyOp13
 70
     1
102
RTVSPropertyOp14
 70
     1
102
RTVSPropertyOp15
 70
     1
102
RTVSPropertyOp16
 70
     1
102
RTVSPropertyOp17
 70
     1
102
RTVSPropertyOp18
 70
     1
102
RTVSPropertyOp19
 70
     1
102
RTVSPropertyOp20
 70
     1
102
RTVSPropertyOp21
 70
     1
102
RTVSPropertyOp22
 70
     1
102
RTVSPropertyOp23
 70
     1
102
RTVSPropertyOp24
 70
     1
102
RTVSPropertyOp25
 70
     1
102
RTVSPropertyOp26
 70
     1
102
RTVSPropertyOp27
 70
     1
102
RTVSPropertyOp28
 70
     1
102
RTVSPropertyOp29
 70
     1
102
RTVSPropertyOp30
 70
     1
102
RTVSPropertyOp31
 70
     1
102
RTVSPropertyOp32
 70
     1
  0
XRECORD
  5
7D1
102
{ACAD_REACTORS
330
7D0
102
}
330
7D0
100
AcDbXrecord
280
     1
102
RTVSPropertyOp0
 70
     1
102
RTVSPropertyOp1
 70
     1
102
RTVSPropertyOp2
 70
     1
102
RTVSPropertyOp3
 70
     1
102
RTVSPropertyOp4
 70
     1
102
RTVSPropertyOp5
 70
     1
102
RTVSPropertyOp6
 70
     1
102
RTVSPropertyOp7
 70
     1
102
RTVSPropertyOp8
 70
     1
102
RTVSPropertyOp9
 70
     1
102
RTVSPropertyOp10
 70
     1
102
RTVSPropertyOp11
 70
     1
102
RTVSPropertyOp12
 70
     1
102
RTVSPropertyOp13
 70
     1
102
RTVSPropertyOp14
 70
     1
102
RTVSPropertyOp15
 70
     1
102
RTVSPropertyOp16
 70
     1
102
RTVSPropertyOp17
 70
     1
102
RTVSPropertyOp18
 70
     1
102
RTVSPropertyOp19
 70
     1
102
RTVSPropertyOp20
 70
     1
102
RTVSPropertyOp21
 70
     1
102
RTVSPropertyOp22
 70
     1
102
RTVSPropertyOp23
 70
     1
102
RTVSPropertyOp24
 70
     1
102
RTVSPropertyOp25
 70
     1
102
RTVSPropertyOp26
 70
     1
102
RTVSPropertyOp27
 70
     1
102
RTVSPropertyOp28
 70
     1
102
RTVSPropertyOp29
 70
     1
102
RTVSPropertyOp30
 70
     1
102
RTVSPropertyOp31
 70
     1
102
RTVSPropertyOp32
 70
     1
  0
XRECORD
  5
7CF
102
{ACAD_REACTORS
330
7CE
102
}
330
7CE
100
AcDbXrecord
280
     1
102
RTVSPropertyOp0
 70
     1
102
RTVSPropertyOp1
 70
     1
102
RTVSPropertyOp2
 70
     1
102
RTVSPropertyOp3
 70
     1
102
RTVSPropertyOp4
 70
     1
102
RTVSPropertyOp5
 70
     1
102
RTVSPropertyOp6
 70
     1
102
RTVSPropertyOp7
 70
     1
102
RTVSPropertyOp8
 70
     1
102
RTVSPropertyOp9
 70
     1
102
RTVSPropertyOp10
 70
     1
102
RTVSPropertyOp11
 70
     1
102
RTVSPropertyOp12
 70
     1
102
RTVSPropertyOp13
 70
     1
102
RTVSPropertyOp14
 70
     1
102
RTVSPropertyOp15
 70
     1
102
RTVSPropertyOp16
 70
     1
102
RTVSPropertyOp17
 70
     1
102
RTVSPropertyOp18
 70
     1
102
RTVSPropertyOp19
 70
     1
102
RTVSPropertyOp20
 70
     1
102
RTVSPropertyOp21
 70
     1
102
RTVSPropertyOp22
 70
     1
102
RTVSPropertyOp23
 70
     1
102
RTVSPropertyOp24
 70
     1
102
RTVSPropertyOp25
 70
     1
102
RTVSPropertyOp26
 70
     1
102
RTVSPropertyOp27
 70
     1
102
RTVSPropertyOp28
 70
     1
102
RTVSPropertyOp29
 70
     1
102
RTVSPropertyOp30
 70
     1
102
RTVSPropertyOp31
 70
     1
102
RTVSPropertyOp32
 70
     1
  0
XRECORD
  5
7D3
102
{ACAD_REACTORS
330
7D2
102
}
330
7D2
100
AcDbXrecord
280
     1
102
RTVSPropertyOp0
 70
     1
102
RTVSPropertyOp1
 70
     1
102
RTVSPropertyOp2
 70
     1
102
RTVSPropertyOp3
 70
     1
102
RTVSPropertyOp4
 70
     1
102
RTVSPropertyOp5
 70
     1
102
RTVSPropertyOp6
 70
     1
102
RTVSPropertyOp7
 70
     1
102
RTVSPropertyOp8
 70
     1
102
RTVSPropertyOp9
 70
     1
102
RTVSPropertyOp10
 70
     1
102
RTVSPropertyOp11
 70
     1
102
RTVSPropertyOp12
 70
     1
102
RTVSPropertyOp13
 70
     1
102
RTVSPropertyOp14
 70
     1
102
RTVSPropertyOp15
 70
     1
102
RTVSPropertyOp16
 70
     1
102
RTVSPropertyOp17
 70
     1
102
RTVSPropertyOp18
 70
     1
102
RTVSPropertyOp19
 70
     1
102
RTVSPropertyOp20
 70
     1
102
RTVSPropertyOp21
 70
     1
102
RTVSPropertyOp22
 70
     1
102
RTVSPropertyOp23
 70
     1
102
RTVSPropertyOp24
 70
     1
102
RTVSPropertyOp25
 70
     1
102
RTVSPropertyOp26
 70
     1
102
RTVSPropertyOp27
 70
     1
102
RTVSPropertyOp28
 70
     1
102
RTVSPropertyOp29
 70
     1
102
RTVSPropertyOp30
 70
     1
102
RTVSPropertyOp31
 70
     1
102
RTVSPropertyOp32
 70
     1
  0
XRECORD
  5
7DB
102
{ACAD_REACTORS
330
7DA
102
}
330
7DA
100
AcDbXrecord
280
     1
102
RTVSPropertyOp0
 70
     1
102
RTVSPropertyOp1
 70
     1
102
RTVSPropertyOp2
 70
     1
102
RTVSPropertyOp3
 70
     1
102
RTVSPropertyOp4
 70
     1
102
RTVSPropertyOp5
 70
     1
102
RTVSPropertyOp6
 70
     1
102
RTVSPropertyOp7
 70
     1
102
RTVSPropertyOp8
 70
     1
102
RTVSPropertyOp9
 70
     1
102
RTVSPropertyOp10
 70
     1
102
RTVSPropertyOp11
 70
     1
102
RTVSPropertyOp12
 70
     1
102
RTVSPropertyOp13
 70
     1
102
RTVSPropertyOp14
 70
     1
102
RTVSPropertyOp15
 70
     1
102
RTVSPropertyOp16
 70
     1
102
RTVSPropertyOp17
 70
     1
102
RTVSPropertyOp18
 70
     1
102
RTVSPropertyOp19
 70
     1
102
RTVSPropertyOp20
 70
     1
102
RTVSPropertyOp21
 70
     1
102
RTVSPropertyOp22
 70
     1
102
RTVSPropertyOp23
 70
     1
102
RTVSPropertyOp24
 70
     1
102
RTVSPropertyOp25
 70
     1
102
RTVSPropertyOp26
 70
     1
102
RTVSPropertyOp27
 70
     1
102
RTVSPropertyOp28
 70
     1
102
RTVSPropertyOp29
 70
     1
102
RTVSPropertyOp30
 70
     1
102
RTVSPropertyOp31
 70
     1
102
RTVSPropertyOp32
 70
     1
  0
XRECORD
  5
7E3
102
{ACAD_REACTORS
330
7E2
102
}
330
7E2
100
AcDbXrecord
280
     1
102
RTVSPropertyOp0
 70
     1
102
RTVSPropertyOp1
 70
     1
102
RTVSPropertyOp2
 70
     1
102
RTVSPropertyOp3
 70
     1
102
RTVSPropertyOp4
 70
     1
102
RTVSPropertyOp5
 70
     1
102
RTVSPropertyOp6
 70
     1
102
RTVSPropertyOp7
 70
     1
102
RTVSPropertyOp8
 70
     1
102
RTVSPropertyOp9
 70
     1
102
RTVSPropertyOp10
 70
     1
102
RTVSPropertyOp11
 70
     1
102
RTVSPropertyOp12
 70
     1
102
RTVSPropertyOp13
 70
     1
102
RTVSPropertyOp14
 70
     1
102
RTVSPropertyOp15
 70
     1
102
RTVSPropertyOp16
 70
     1
102
RTVSPropertyOp17
 70
     1
102
RTVSPropertyOp18
 70
     1
102
RTVSPropertyOp19
 70
     1
102
RTVSPropertyOp20
 70
     1
102
RTVSPropertyOp21
 70
     1
102
RTVSPropertyOp22
 70
     1
102
RTVSPropertyOp23
 70
     1
102
RTVSPropertyOp24
 70
     1
102
RTVSPropertyOp25
 70
     1
102
RTVSPropertyOp26
 70
     1
102
RTVSPropertyOp27
 70
     1
102
RTVSPropertyOp28
 70
     1
102
RTVSPropertyOp29
 70
     1
102
RTVSPropertyOp30
 70
     1
102
RTVSPropertyOp31
 70
     1
102
RTVSPropertyOp32
 70
     1
  0
XRECORD
  5
7D7
102
{ACAD_REACTORS
330
7D6
102
}
330
7D6
100
AcDbXrecord
280
     1
102
RTVSPropertyOp0
 70
     1
102
RTVSPropertyOp1
 70
     1
102
RTVSPropertyOp2
 70
     1
102
RTVSPropertyOp3
 70
     1
102
RTVSPropertyOp4
 70
     1
102
RTVSPropertyOp5
 70
     1
102
RTVSPropertyOp6
 70
     1
102
RTVSPropertyOp7
 70
     1
102
RTVSPropertyOp8
 70
     1
102
RTVSPropertyOp9
 70
     1
102
RTVSPropertyOp10
 70
     1
102
RTVSPropertyOp11
 70
     1
102
RTVSPropertyOp12
 70
     1
102
RTVSPropertyOp13
 70
     1
102
RTVSPropertyOp14
 70
     1
102
RTVSPropertyOp15
 70
     1
102
RTVSPropertyOp16
 70
     1
102
RTVSPropertyOp17
 70
     1
102
RTVSPropertyOp18
 70
     1
102
RTVSPropertyOp19
 70
     1
102
RTVSPropertyOp20
 70
     1
102
RTVSPropertyOp21
 70
     1
102
RTVSPropertyOp22
 70
     1
102
RTVSPropertyOp23
 70
     1
102
RTVSPropertyOp24
 70
     1
102
RTVSPropertyOp25
 70
     1
102
RTVSPropertyOp26
 70
     1
102
RTVSPropertyOp27
 70
     1
102
RTVSPropertyOp28
 70
     1
102
RTVSPropertyOp29
 70
     1
102
RTVSPropertyOp30
 70
     1
102
RTVSPropertyOp31
 70
     1
102
RTVSPropertyOp32
 70
     1
  0
XRECORD
  5
7D9
102
{ACAD_REACTORS
330
7D8
102
}
330
7D8
100
AcDbXrecord
280
     1
102
RTVSPropertyOp0
 70
     1
102
RTVSPropertyOp1
 70
     1
102
RTVSPropertyOp2
 70
     1
102
RTVSPropertyOp3
 70
     1
102
RTVSPropertyOp4
 70
     1
102
RTVSPropertyOp5
 70
     1
102
RTVSPropertyOp6
 70
     1
102
RTVSPropertyOp7
 70
     1
102
RTVSPropertyOp8
 70
     1
102
RTVSPropertyOp9
 70
     1
102
RTVSPropertyOp10
 70
     1
102
RTVSPropertyOp11
 70
     1
102
RTVSPropertyOp12
 70
     1
102
RTVSPropertyOp13
 70
     1
102
RTVSPropertyOp14
 70
     1
102
RTVSPropertyOp15
 70
     1
102
RTVSPropertyOp16
 70
     1
102
RTVSPropertyOp17
 70
     1
102
RTVSPropertyOp18
 70
     1
102
RTVSPropertyOp19
 70
     1
102
RTVSPropertyOp20
 70
     1
102
RTVSPropertyOp21
 70
     1
102
RTVSPropertyOp22
 70
     1
102
RTVSPropertyOp23
 70
     1
102
RTVSPropertyOp24
 70
     1
102
RTVSPropertyOp25
 70
     1
102
RTVSPropertyOp26
 70
     1
102
RTVSPropertyOp27
 70
     1
102
RTVSPropertyOp28
 70
     1
102
RTVSPropertyOp29
 70
     1
102
RTVSPropertyOp30
 70
     1
102
RTVSPropertyOp31
 70
     1
102
RTVSPropertyOp32
 70
     1
  0
XRECORD
  5
7E1
102
{ACAD_REACTORS
330
7E0
102
}
330
7E0
100
AcDbXrecord
280
     1
102
RTVSPropertyOp0
 70
     1
102
RTVSPropertyOp1
 70
     1
102
RTVSPropertyOp2
 70
     1
102
RTVSPropertyOp3
 70
     1
102
RTVSPropertyOp4
 70
     1
102
RTVSPropertyOp5
 70
     1
102
RTVSPropertyOp6
 70
     1
102
RTVSPropertyOp7
 70
     1
102
RTVSPropertyOp8
 70
     1
102
RTVSPropertyOp9
 70
     1
102
RTVSPropertyOp10
 70
     1
102
RTVSPropertyOp11
 70
     1
102
RTVSPropertyOp12
 70
     1
102
RTVSPropertyOp13
 70
     1
102
RTVSPropertyOp14
 70
     1
102
RTVSPropertyOp15
 70
     1
102
RTVSPropertyOp16
 70
     1
102
RTVSPropertyOp17
 70
     1
102
RTVSPropertyOp18
 70
     1
102
RTVSPropertyOp19
 70
     1
102
RTVSPropertyOp20
 70
     1
102
RTVSPropertyOp21
 70
     1
102
RTVSPropertyOp22
 70
     1
102
RTVSPropertyOp23
 70
     1
102
RTVSPropertyOp24
 70
     1
102
RTVSPropertyOp25
 70
     1
102
RTVSPropertyOp26
 70
     1
102
RTVSPropertyOp27
 70
     1
102
RTVSPropertyOp28
 70
     1
102
RTVSPropertyOp29
 70
     1
102
RTVSPropertyOp30
 70
     1
102
RTVSPropertyOp31
 70
     1
102
RTVSPropertyOp32
 70
     1
  0
XRECORD
  5
7C5
102
{ACAD_REACTORS
330
7C4
102
}
330
7C4
100
AcDbXrecord
280
     1
102
RTVSPropertyOp0
 70
     1
102
RTVSPropertyOp1
 70
     1
102
RTVSPropertyOp2
 70
     1
102
RTVSPropertyOp3
 70
     1
102
RTVSPropertyOp4
 70
     1
102
RTVSPropertyOp5
 70
     1
102
RTVSPropertyOp6
 70
     1
102
RTVSPropertyOp7
 70
     1
102
RTVSPropertyOp8
 70
     1
102
RTVSPropertyOp9
 70
     1
102
RTVSPropertyOp10
 70
     1
102
RTVSPropertyOp11
 70
     1
102
RTVSPropertyOp12
 70
     1
102
RTVSPropertyOp13
 70
     1
102
RTVSPropertyOp14
 70
     1
102
RTVSPropertyOp15
 70
     1
102
RTVSPropertyOp16
 70
     1
102
RTVSPropertyOp17
 70
     1
102
RTVSPropertyOp18
 70
     1
102
RTVSPropertyOp19
 70
     1
102
RTVSPropertyOp20
 70
     1
102
RTVSPropertyOp21
 70
     1
102
RTVSPropertyOp22
 70
     1
102
RTVSPropertyOp23
 70
     1
102
RTVSPropertyOp24
 70
     1
102
RTVSPropertyOp25
 70
     1
102
RTVSPropertyOp26
 70
     1
102
RTVSPropertyOp27
 70
     1
102
RTVSPropertyOp28
 70
     1
102
RTVSPropertyOp29
 70
     1
102
RTVSPropertyOp30
 70
     1
102
RTVSPropertyOp31
 70
     1
102
RTVSPropertyOp32
 70
     1
  0
XRECORD
  5
7C7
102
{ACAD_REACTORS
330
7C6
102
}
330
7C6
100
AcDbXrecord
280
     1
102
RTVSPropertyOp0
 70
     1
102
RTVSPropertyOp1
 70
     1
102
RTVSPropertyOp2
 70
     1
102
RTVSPropertyOp3
 70
     1
102
RTVSPropertyOp4
 70
     1
102
RTVSPropertyOp5
 70
     1
102
RTVSPropertyOp6
 70
     1
102
RTVSPropertyOp7
 70
     1
102
RTVSPropertyOp8
 70
     1
102
RTVSPropertyOp9
 70
     1
102
RTVSPropertyOp10
 70
     1
102
RTVSPropertyOp11
 70
     1
102
RTVSPropertyOp12
 70
     1
102
RTVSPropertyOp13
 70
     1
102
RTVSPropertyOp14
 70
     1
102
RTVSPropertyOp15
 70
     1
102
RTVSPropertyOp16
 70
     1
102
RTVSPropertyOp17
 70
     1
102
RTVSPropertyOp18
 70
     1
102
RTVSPropertyOp19
 70
     1
102
RTVSPropertyOp20
 70
     1
102
RTVSPropertyOp21
 70
     1
102
RTVSPropertyOp22
 70
     1
102
RTVSPropertyOp23
 70
     1
102
RTVSPropertyOp24
 70
     1
102
RTVSPropertyOp25
 70
     1
102
RTVSPropertyOp26
 70
     1
102
RTVSPropertyOp27
 70
     1
102
RTVSPropertyOp28
 70
     1
102
RTVSPropertyOp29
 70
     1
102
RTVSPropertyOp30
 70
     1
102
RTVSPropertyOp31
 70
     1
102
RTVSPropertyOp32
 70
     1
  0
XRECORD
  5
7C9
102
{ACAD_REACTORS
330
7C8
102
}
330
7C8
100
AcDbXrecord
280
     1
102
RTVSPropertyOp0
 70
     1
102
RTVSPropertyOp1
 70
     1
102
RTVSPropertyOp2
 70
     1
102
RTVSPropertyOp3
 70
     1
102
RTVSPropertyOp4
 70
     1
102
RTVSPropertyOp5
 70
     1
102
RTVSPropertyOp6
 70
     1
102
RTVSPropertyOp7
 70
     1
102
RTVSPropertyOp8
 70
     1
102
RTVSPropertyOp9
 70
     1
102
RTVSPropertyOp10
 70
     1
102
RTVSPropertyOp11
 70
     1
102
RTVSPropertyOp12
 70
     1
102
RTVSPropertyOp13
 70
     1
102
RTVSPropertyOp14
 70
     1
102
RTVSPropertyOp15
 70
     1
102
RTVSPropertyOp16
 70
     1
102
RTVSPropertyOp17
 70
     1
102
RTVSPropertyOp18
 70
     1
102
RTVSPropertyOp19
 70
     1
102
RTVSPropertyOp20
 70
     1
102
RTVSPropertyOp21
 70
     1
102
RTVSPropertyOp22
 70
     1
102
RTVSPropertyOp23
 70
     1
102
RTVSPropertyOp24
 70
     1
102
RTVSPropertyOp25
 70
     1
102
RTVSPropertyOp26
 70
     1
102
RTVSPropertyOp27
 70
     1
102
RTVSPropertyOp28
 70
     1
102
RTVSPropertyOp29
 70
     1
102
RTVSPropertyOp30
 70
     1
102
RTVSPropertyOp31
 70
     1
102
RTVSPropertyOp32
 70
     1
  0
XRECORD
  5
7CB
102
{ACAD_REACTORS
330
7CA
102
}
330
7CA
100
AcDbXrecord
280
     1
102
RTVSPropertyOp0
 70
     1
102
RTVSPropertyOp1
 70
     1
102
RTVSPropertyOp2
 70
     1
102
RTVSPropertyOp3
 70
     1
102
RTVSPropertyOp4
 70
     1
102
RTVSPropertyOp5
 70
     1
102
RTVSPropertyOp6
 70
     1
102
RTVSPropertyOp7
 70
     1
102
RTVSPropertyOp8
 70
     1
102
RTVSPropertyOp9
 70
     1
102
RTVSPropertyOp10
 70
     1
102
RTVSPropertyOp11
 70
     1
102
RTVSPropertyOp12
 70
     1
102
RTVSPropertyOp13
 70
     1
102
RTVSPropertyOp14
 70
     1
102
RTVSPropertyOp15
 70
     1
102
RTVSPropertyOp16
 70
     1
102
RTVSPropertyOp17
 70
     1
102
RTVSPropertyOp18
 70
     1
102
RTVSPropertyOp19
 70
     1
102
RTVSPropertyOp20
 70
     1
102
RTVSPropertyOp21
 70
     1
102
RTVSPropertyOp22
 70
     1
102
RTVSPropertyOp23
 70
     1
102
RTVSPropertyOp24
 70
     1
102
RTVSPropertyOp25
 70
     1
102
RTVSPropertyOp26
 70
     1
102
RTVSPropertyOp27
 70
     1
102
RTVSPropertyOp28
 70
     1
102
RTVSPropertyOp29
 70
     1
102
RTVSPropertyOp30
 70
     1
102
RTVSPropertyOp31
 70
     1
102
RTVSPropertyOp32
 70
     1
  0
XRECORD
  5
7DF
102
{ACAD_REACTORS
330
7DE
102
}
330
7DE
100
AcDbXrecord
280
     1
102
RTVSPropertyOp0
 70
     1
102
RTVSPropertyOp1
 70
     1
102
RTVSPropertyOp2
 70
     1
102
RTVSPropertyOp3
 70
     1
102
RTVSPropertyOp4
 70
     1
102
RTVSPropertyOp5
 70
     1
102
RTVSPropertyOp6
 70
     1
102
RTVSPropertyOp7
 70
     1
102
RTVSPropertyOp8
 70
     1
102
RTVSPropertyOp9
 70
     1
102
RTVSPropertyOp10
 70
     1
102
RTVSPropertyOp11
 70
     1
102
RTVSPropertyOp12
 70
     1
102
RTVSPropertyOp13
 70
     1
102
RTVSPropertyOp14
 70
     1
102
RTVSPropertyOp15
 70
     1
102
RTVSPropertyOp16
 70
     1
102
RTVSPropertyOp17
 70
     1
102
RTVSPropertyOp18
 70
     1
102
RTVSPropertyOp19
 70
     1
102
RTVSPropertyOp20
 70
     1
102
RTVSPropertyOp21
 70
     1
102
RTVSPropertyOp22
 70
     1
102
RTVSPropertyOp23
 70
     1
102
RTVSPropertyOp24
 70
     1
102
RTVSPropertyOp25
 70
     1
102
RTVSPropertyOp26
 70
     1
102
RTVSPropertyOp27
 70
     1
102
RTVSPropertyOp28
 70
     1
102
RTVSPropertyOp29
 70
     1
102
RTVSPropertyOp30
 70
     1
102
RTVSPropertyOp31
 70
     1
102
RTVSPropertyOp32
 70
     1
  0
XRECORD
  5
7D5
102
{ACAD_REACTORS
330
7D4
102
}
330
7D4
100
AcDbXrecord
280
     1
102
RTVSPropertyOp0
 70
     1
102
RTVSPropertyOp1
 70
     1
102
RTVSPropertyOp2
 70
     1
102
RTVSPropertyOp3
 70
     1
102
RTVSPropertyOp4
 70
     1
102
RTVSPropertyOp5
 70
     1
102
RTVSPropertyOp6
 70
     1
102
RTVSPropertyOp7
 70
     1
102
RTVSPropertyOp8
 70
     1
102
RTVSPropertyOp9
 70
     1
102
RTVSPropertyOp10
 70
     1
102
RTVSPropertyOp11
 70
     1
102
RTVSPropertyOp12
 70
     1
102
RTVSPropertyOp13
 70
     1
102
RTVSPropertyOp14
 70
     1
102
RTVSPropertyOp15
 70
     1
102
RTVSPropertyOp16
 70
     1
102
RTVSPropertyOp17
 70
     1
102
RTVSPropertyOp18
 70
     1
102
RTVSPropertyOp19
 70
     1
102
RTVSPropertyOp20
 70
     1
102
RTVSPropertyOp21
 70
     1
102
RTVSPropertyOp22
 70
     1
102
RTVSPropertyOp23
 70
     1
102
RTVSPropertyOp24
 70
     1
102
RTVSPropertyOp25
 70
     1
102
RTVSPropertyOp26
 70
     1
102
RTVSPropertyOp27
 70
     1
102
RTVSPropertyOp28
 70
     1
102
RTVSPropertyOp29
 70
     1
102
RTVSPropertyOp30
 70
     1
102
RTVSPropertyOp31
 70
     1
102
RTVSPropertyOp32
 70
     1
  0
XRECORD
  5
7DD
102
{ACAD_REACTORS
330
7DC
102
}
330
7DC
100
AcDbXrecord
280
     1
102
RTVSPropertyOp0
 70
     1
102
RTVSPropertyOp1
 70
     1
102
RTVSPropertyOp2
 70
     1
102
RTVSPropertyOp3
 70
     1
102
RTVSPropertyOp4
 70
     1
102
RTVSPropertyOp5
 70
     1
102
RTVSPropertyOp6
 70
     1
102
RTVSPropertyOp7
 70
     1
102
RTVSPropertyOp8
 70
     1
102
RTVSPropertyOp9
 70
     1
102
RTVSPropertyOp10
 70
     1
102
RTVSPropertyOp11
 70
     1
102
RTVSPropertyOp12
 70
     1
102
RTVSPropertyOp13
 70
     1
102
RTVSPropertyOp14
 70
     1
102
RTVSPropertyOp15
 70
     1
102
RTVSPropertyOp16
 70
     1
102
RTVSPropertyOp17
 70
     1
102
RTVSPropertyOp18
 70
     1
102
RTVSPropertyOp19
 70
     1
102
RTVSPropertyOp20
 70
     1
102
RTVSPropertyOp21
 70
     1
102
RTVSPropertyOp22
 70
     1
102
RTVSPropertyOp23
 70
     1
102
RTVSPropertyOp24
 70
     1
102
RTVSPropertyOp25
 70
     1
102
RTVSPropertyOp26
 70
     1
102
RTVSPropertyOp27
 70
     1
102
RTVSPropertyOp28
 70
     1
102
RTVSPropertyOp29
 70
     1
102
RTVSPropertyOp30
 70
     1
102
RTVSPropertyOp31
 70
     1
102
RTVSPropertyOp32
 70
     1
  0
ENDSEC
  0
EOF
